[2010] [欧美] [剧情] [BD-1080P] 家谱 The.Family.Tree.2011.LIMITED.RERIP.1080p.BluRay.x264-PSYCHD 6.55GB

uump4 10天前 53

帖子完整标题:家谱 The.Family.Tree.2011.LIMITED.RERIP.1080p.BluRay.x264-PSYCHD 6.55GB

悠悠MP4_MP4电影下载_家谱 The.Family.Tree.2011.LIMITED.RERIP.1080p.BluRay.x264-PSYCHD 6.55GB

◎译  名 家谱 / Driving Lessons
◎片  名 The Family Tree
◎年  代 2010
◎产  地 美国
◎类  别 剧情 / 喜剧 / 家庭
◎语  言 英语
◎上映日期 2011-08-26(美国部分上映)
◎IMDb评分  5.4/10 from 1847 users
◎IMDb链接  https://www.imdb.com/title/tt1175713
◎豆瓣评分 6.3/10 from 471 users
◎豆瓣链接 https://movie.douban.com/subject/3011019/
◎片  长 87分钟
◎导  演 Vivi Friedman
◎编  剧 Mark Lisson
◎主  演 Dermot Mulroney
       Hope Davis
       Max Thieriot
       Brittany Robertson


◎标  签 喜剧 | 美国 | 家庭 | 2010 | 美国电影 | 我看过的电影 | 我看过的英语电影 | 英语电影

◎简  介 悠悠MP4_MP4电影下载_家谱 The.Family.Tree.2011.LIMITED.RERIP.1080p.BluRay.x264-PSYCHD 6.55GB  

  女主人公的家庭生活很不幸福,婚姻走到了崩溃的边缘,然而这时一场突发的意外使她丧失了之前15年的记忆。不再为过去的糟糕经历所累的她,婚姻又开始出现了转机。

Video
ID                                       : 1
Format                                   : AVC
Format/Info                              : Advanced Video Codec
Format profile                           : [email protected]
Format settings                          : CABAC / 5 Ref Frames
Format settings, CABAC                   : Yes
Format settings, Reference frames        : 5 frames
Codec ID                                 : V_MPEG4/ISO/AVC
Duration                                 : 1 h 30 min
Bit rate                                 : 8 883 kb/s
Width                                    : 1 920 pixels
Height                                   : 824 pixels
Display aspect ratio                     : 2.35:1
Frame rate mode                          : Constant
Frame rate                               : 23.976 (24000/1001/189150) FPS
Color space                              : YUV
Chroma subsampling                       : 4:2:0
Bit depth                                : 8 bits
Scan type                                : Progressive
Bits/(Pixel*Frame)                       : 0.234
Stream size                              : 5.47 GiB (83%)
Writing library                          : x264 core 120 r2120 0c7dab9
Encoding settings                        : cabac=1 / ref=5 / deblock=1:0:0 / analyse=0x3:0x113 / me=umh / subme=8 / psy=1 / psy_rd=1.00:0.00 / mixed_ref=1 / me_range=16 / chroma_me=1 / trellis=1 / 8x8dct=1 / cqm=0 / deadzone=21,11 / fast_pskip=1 / chroma_qp_offset=-2 / threads=12 / sliced_threads=0 / nr=0 / decimate=1 / interlaced=0 / bluray_compat=0 / constrained_intra=0 / bframes=3 / b_pyramid=2 / b_adapt=2 / b_bias=0 / direct=3 / weightb=1 / open_gop=0 / weightp=2 / keyint=240 / keyint_min=24 / scenecut=40 / intra_refresh=0 / rc_lookahead=50 / rc=2pass / mbtree=1 / bitrate=8883 / ratetol=1.0 / qcomp=0.60 / qpmin=0 / qpmax=69 / qpstep=4 / cplxblur=20.0 / qblur=0.5 / ip_ratio=1.40 / aq=1:1.00
Language                                 : English
Default                                  : Yes
Forced                                   : No

Audio
ID                                       : 2
Format                                   : DTS
Format/Info                              : Digital Theater Systems
Codec ID                                 : A_DTS
Duration                                 : 1 h 30 min
Bit rate mode                            : Constant
Bit rate                                 : 1 509 kb/s
Channel(s)                               : 6 channels
Channel layout                           : C L R Ls Rs LFE
Sampling rate                            : 48.0 kHz
Frame rate                               : 93.750 FPS (512 SPF)
Bit depth                                : 24 bits
Compression mode                         : Lossy
Stream size                              : 975 MiB (15%)
Language                                 : English
Default                                  : Yes
Forced                                   : No

Text
ID                                       : 3
Format                                   : UTF-8
Codec ID                                 : S_TEXT/UTF8
Codec ID/Info                            : UTF-8 Plain Text
Language                                 : English
Default                                  : No
Forced                                   : No

Menu
00:00:00.000                             : en:00:00:00.000
00:04:46.703                             : en:00:04:46.703
00:10:32.465                             : en:00:10:32.465
00:19:19.075                             : en:00:19:19.075
00:26:27.836                             : en:00:26:27.836
00:33:12.908                             : en:00:33:12.908
00:45:05.077                             : en:00:45:05.077
00:57:28.445                             : en:00:57:28.445
01:04:40.376                             : en:01:04:40.376
01:15:06.210                             : en:01:15:06.210
01:19:13.540                             : en:01:19:13.540
01:25:47.225                             : en:01:25:47.225


悠悠MP4_MP4电影下载_家谱 The.Family.Tree.2011.LIMITED.RERIP.1080p.BluRay.x264-PSYCHD 6.55GB


提示:如迅雷下载提示"任务出错"、"因版权无法下载",请尝试【迅雷5】
上传的附件:
最新回复 (0)
返回
本站所有资源均收集自互联网,没有提供影片资源存储, 也未参与录制、上传,若本站收录的资源无意侵犯了您的权益, 请联系邮箱:gogoimgs#gmail.com(#=@)