[更早] [其他] [喜剧] [BD-1080P] 乌龙记者 Transylvania.6-5000.1985.1080p.BluRay.x264-PSYCHD 9.84GB

uump4 4天前 43

帖子完整标题:乌龙记者 Transylvania.6-5000.1985.1080p.BluRay.x264-PSYCHD 9.84GB

悠悠MP4_MP4电影下载_乌龙记者 Transylvania.6-5000.1985.1080p.BluRay.x264-PSYCHD 9.84GB

◎译  名 乌龙记者
◎片  名 Transylvania 6-5000
◎年  代 1985
◎产  地 南斯拉夫 / 美国
◎类  别 喜剧 / 恐怖
◎语  言 英语
◎上映日期 1985-11-08
◎IMDb评分  5.0/10 from 6488 users
◎IMDb链接  https://www.imdb.com/title/tt0090196
◎豆瓣评分 0/10 from 0 users
◎豆瓣链接 https://movie.douban.com/subject/3087916/
◎片  长 93 分钟
◎导  演 Rudy De Luca
◎编  剧 Rudy De Luca
◎主  演 Jeff Goldblum
       Ed Begley Jr.
       Geena Davis
       Michael Richards


◎标  签 喜剧 | 美国 | 恐怖 | 黑色幽默 | 警匪 | 杰夫高布伦 | 无厘头 | 恶搞

◎简  介 悠悠MP4_MP4电影下载_乌龙记者 Transylvania.6-5000.1985.1080p.BluRay.x264-PSYCHD 9.84GB  

  暂无相关剧情介绍

Video
ID                                       : 1
Format                                   : AVC
Format/Info                              : Advanced Video Codec
Format profile                           : [email protected]
Format settings                          : CABAC / 4 Ref Frames
Format settings, CABAC                   : Yes
Format settings, Reference frames        : 4 frames
Codec ID                                 : V_MPEG4/ISO/AVC
Duration                                 : 1 h 34 min
Bit rate                                 : 13.4 Mb/s
Width                                    : 1 920 pixels
Height                                   : 1 048 pixels
Display aspect ratio                     : 1.85:1
Frame rate mode                          : Constant
Frame rate                               : 23.976 (24000/1001/189150) FPS
Color space                              : YUV
Chroma subsampling                       : 4:2:0
Bit depth                                : 8 bits
Scan type                                : Progressive
Bits/(Pixel*Frame)                       : 0.278
Stream size                              : 8.65 GiB (88%)
Writing library                          : x264 core 159 r2991 1771b55
Encoding settings                        : cabac=1 / ref=4 / deblock=1:-3:-3 / analyse=0x3:0x113 / me=umh / subme=8 / psy=1 / psy_rd=1.10:0.00 / mixed_ref=1 / me_range=32 / chroma_me=1 / trellis=2 / 8x8dct=1 / cqm=0 / deadzone=21,11 / fast_pskip=1 / chroma_qp_offset=-2 / threads=33 / lookahead_threads=5 / sliced_threads=0 / nr=0 / decimate=1 / interlaced=0 / bluray_compat=0 / constrained_intra=0 / bframes=3 / b_pyramid=2 / b_adapt=2 / b_bias=0 / direct=3 / weightb=1 / open_gop=0 / weightp=2 / keyint=240 / keyint_min=24 / scenecut=40 / intra_refresh=0 / rc_lookahead=50 / rc=2pass / mbtree=1 / bitrate=13425 / ratetol=1.0 / qcomp=0.60 / qpmin=0 / qpmax=69 / qpstep=4 / cplxblur=20.0 / qblur=0.5 / ip_ratio=1.40 / aq=3:0.70
Default                                  : Yes
Forced                                   : No
Statistics Tags Issue                    : no_variable_data 1970-01-01 00:00:00 / no_variable_data 2010-02-22 21:41:29
FromStats_BitRate                        : 13421146
FromStats_Duration                       : 01:34:19.404000000
FromStats_FrameCount                     : 135690
FromStats_StreamSize                     : 9494460928

Audio
ID                                       : 2
Format                                   : DTS
Format/Info                              : Digital Theater Systems
Codec ID                                 : A_DTS
Duration                                 : 1 h 34 min
Bit rate mode                            : Constant
Bit rate                                 : 1 509 kb/s
Channel(s)                               : 2 channels
Channel layout                           : L R
Sampling rate                            : 48.0 kHz
Frame rate                               : 93.750 FPS (512 SPF)
Bit depth                                : 24 bits
Compression mode                         : Lossy
Stream size                              : 1 018 MiB (10%)
Language                                 : English
Default                                  : Yes
Forced                                   : No
Statistics Tags Issue                    : no_variable_data 1970-01-01 00:00:00 / no_variable_data 2010-02-22 21:41:29
FromStats_BitRate                        : 1509000
FromStats_Duration                       : 01:34:19.424000000
FromStats_FrameCount                     : 530571
FromStats_StreamSize                     : 1067508852

Text
ID                                       : 3
Format                                   : UTF-8
Codec ID                                 : S_TEXT/UTF8
Codec ID/Info                            : UTF-8 Plain Text
Language                                 : English
Default                                  : No
Forced                                   : No
Statistics Tags Issue                    : no_variable_data 1970-01-01 00:00:00 / no_variable_data 2010-02-22 21:41:29
FromStats_BitRate                        : 65
FromStats_Duration                       : 01:30:50.528000000
FromStats_FrameCount                     : 1262
FromStats_StreamSize                     : 44429

Menu
00:00:00.000                             : en:Chapter 01
00:12:27.538                             : en:Chapter 02
00:22:41.068                             : en:Chapter 03
00:34:58.305                             : en:Chapter 04
00:44:40.344                             : en:Chapter 05
00:54:11.373                             : en:Chapter 06
01:08:08.584                             : en:Chapter 07
01:19:02.571                             : en:Chapter 08


悠悠MP4_MP4电影下载_乌龙记者 Transylvania.6-5000.1985.1080p.BluRay.x264-PSYCHD 9.84GB


提示:如迅雷下载提示"任务出错"、"因版权无法下载",请尝试【迅雷5】
上传的附件:
最新回复 (0)
返回
本站所有资源均收集自互联网,没有提供影片资源存储, 也未参与录制、上传,若本站收录的资源无意侵犯了您的权益, 请联系邮箱:gogoimgs#gmail.com(#=@)