[更早] [其他] [喜剧] [BD-1080P] 人嚇人 The.Dead.And.The.Deadly.1982.CHINESE.1080p.BluRay.x264.DD2.0-CHD 7.71GB

uump4 4天前 72

帖子完整标题:人嚇人 The.Dead.And.The.Deadly.1982.CHINESE.1080p.BluRay.x264.DD2.0-CHD 7.71GB

悠悠MP4_MP4电影下载_人嚇人 The.Dead.And.The.Deadly.1982.CHINESE.1080p.BluRay.x264.DD2.0-CHD 7.71GB

◎译  名 人吓人 / The Dead and the Deadly
◎片  名 人嚇人
◎年  代 1982
◎产  地 中国香港
◎类  别 喜剧 / 动作 / 恐怖 / 历史 / 奇幻
◎语  言 粤语
◎上映日期 1982-12-22(中国香港)
◎IMDb评分  6.3/10 from 329 users
◎IMDb链接  https://www.imdb.com/title/tt0084587
◎豆瓣评分 7.2/10 from 11058 users
◎豆瓣链接 https://movie.douban.com/subject/1304021/
◎片  长 99分钟
◎导  演 午马 Wu Ma
◎编  剧 洪金宝 Sammo Hung Kam-Bo / 黄炳耀 Barry Wong
◎主  演 洪金宝 Sammo Hung Kam-Bo
       午马 Wu Ma
       林正英 Ching-Ying Lam
       钟楚红 Cherie Chung


◎标  签 林正英 | 香港 | 洪金宝 | 喜剧 | 香港电影 | 鬼片 | 午马 | 钟楚红

◎简  介 悠悠MP4_MP4电影下载_人嚇人 The.Dead.And.The.Deadly.1982.CHINESE.1080p.BluRay.x264.DD2.0-CHD 7.71GB  

  纸扎店小工朱宏利(洪金宝 饰)自小由道士二叔公(林正英 饰)带大,朱宏利道术未习多少,行事偶而颠倒,却有一副正气心肠,因不肯拖累指腹为婚的未婚妻阿云(钟楚红 饰),时常给人家冷脸。朱宏利好友马麟祥(午马 饰)外出闯荡,返乡时却变成了一具尸体,一同回来的还有马麟祥怀孕的妻子跟几个男伴,朱宏利感事有蹊跷,出力调查却一无所获。几日后,马麟祥冤魂找到朱宏利求助,原来马麟祥返乡时并未身亡,只为伙同他人盗取自家祖上的陪葬品而出此下策,却不料假戏成真,被同伙取了性命。心灰意懒的朱宏利拗不过冤魂骚扰,请来二叔公做法帮好友报仇,结果自己丢掉了肉身以至丧命。悲痛欲绝的阿云经二叔公指点,欲与鬼差斗计抢回朱宏利的魂魄……

◎获奖情况  

  第3届香港电影金像奖(1984)
  最佳电影(提名)
  最佳导演(提名) 午马
  最佳编剧(提名) 黄炳耀 / 洪金宝
  最佳男主角(提名) 洪金宝
  最佳动作设计(提名) 元彪 / 林正英 / 陈会毅 / 洪金宝

Video
ID                                       : 1
Format                                   : AVC
Format/Info                              : Advanced Video Codec
Format profile                           : [email protected]
Format settings                          : CABAC / 4 Ref Frames
Format settings, CABAC                   : Yes
Format settings, Reference frames        : 4 frames
Codec ID                                 : V_MPEG4/ISO/AVC
Duration                                 : 1 h 39 min
Bit rate                                 : 10.7 Mb/s
Width                                    : 1 920 pixels
Height                                   : 804 pixels
Display aspect ratio                     : 2.40:1
Frame rate mode                          : Constant
Frame rate                               : 24.000 FPS
Color space                              : YUV
Chroma subsampling                       : 4:2:0
Bit depth                                : 8 bits
Scan type                                : Progressive
Bits/(Pixel*Frame)                       : 0.289
Stream size                              : 7.44 GiB (97%)
Writing library                          : x264 core 157 r2867+150 7e91e0e t_mod_Custom_2 [[email protected] X86_64]
Encoding settings                        : cabac=1 / ref=4 / deblock=1:-3:-3 / analyse=0x3:0x133 / me=umh / subme=11 / psy=1 / fade_compensate=0.00 / psy_rd=0.90:0.10 / mixed_ref=1 / me_range=64 / chroma_me=1 / trellis=2 / 8x8dct=1 / cqm=0 / deadzone=21,11 / fast_pskip=0 / chroma_qp_offset=-4 / threads=25 / lookahead_threads=4 / sliced_threads=0 / nr=0 / decimate=1 / interlaced=0 / bluray_compat=0 / constrained_intra=0 / fgo=0 / bframes=8 / b_pyramid=2 / b_adapt=2 / b_bias=0 / direct=3 / weightb=1 / open_gop=0 / weightp=2 / keyint=250 / keyint_min=24 / scenecut=40 / intra_refresh=0 / rc_lookahead=60 / rc=crf / mbtree=0 / crf=18.0000 / qcomp=0.70 / qpmin=0:0:0 / qpmax=69:69:69 / qpstep=4 / vbv_maxrate=35000 / vbv_bufsize=35000 / crf_max=0.0 / nal_hrd=none / filler=0 / ip_ratio=1.40 / pb_ratio=1.30 / aq=3:1.00 / aq-sensitivity=10.00 / aq-factor=1.00:1.00:1.00 / aq2=0 / aq3=0
Language                                 : Chinese
Default                                  : Yes
Forced                                   : No

Audio
ID                                       : 2
Format                                   : AC-3
Format/Info                              : Audio Coding 3
Commercial name                          : Dolby Digital
Codec ID                                 : A_AC3
Duration                                 : 1 h 39 min
Bit rate mode                            : Constant
Bit rate                                 : 384 kb/s
Channel(s)                               : 2 channels
Channel layout                           : L R
Sampling rate                            : 48.0 kHz
Frame rate                               : 31.250 FPS (1536 SPF)
Compression mode                         : Lossy
Stream size                              : 273 MiB (3%)
Language                                 : Chinese
Service kind                             : Complete Main
Default                                  : Yes
Forced                                   : No

Text
ID                                       : 3
Format                                   : UTF-8
Codec ID                                 : S_TEXT/UTF8
Codec ID/Info                            : UTF-8 Plain Text
Duration                                 : 1 h 37 min
Bit rate                                 : 30 b/s
Count of elements                        : 1133
Stream size                              : 21.7 KiB (0%)
Language                                 : ceb
Default                                  : Yes
Forced                                   : No

Menu
00:00:00.000                             : en:绗?01 绔?
00:06:08.083                             : en:绗?02 绔?
00:16:10.458                             : en:绗?03 绔?
00:24:30.917                             : en:绗?04 绔?
00:31:37.208                             : en:绗?05 绔?
00:41:06.708                             : en:绗?06 绔?
00:48:53.250                             : en:绗?07 绔?
00:56:57.042                             : en:绗?08 绔?
01:05:51.917                             : en:绗?09 绔?
01:13:56.750                             : en:绗?10 绔?
01:21:48.625                             : en:绗?11 绔?
01:28:08.417                             : en:绗?12 绔?


悠悠MP4_MP4电影下载_人嚇人 The.Dead.And.The.Deadly.1982.CHINESE.1080p.BluRay.x264.DD2.0-CHD 7.71GB悠悠MP4_MP4电影下载_人嚇人 The.Dead.And.The.Deadly.1982.CHINESE.1080p.BluRay.x264.DD2.0-CHD 7.71GB悠悠MP4_MP4电影下载_人嚇人 The.Dead.And.The.Deadly.1982.CHINESE.1080p.BluRay.x264.DD2.0-CHD 7.71GB


提示:如迅雷下载提示"任务出错"、"因版权无法下载",请尝试【迅雷5】
上传的附件:
最新回复 (0)
返回
本站所有资源均收集自互联网,没有提供影片资源存储, 也未参与录制、上传,若本站收录的资源无意侵犯了您的权益, 请联系邮箱:gogoimgs#gmail.com(#=@)