[更早] [欧美] [喜剧] [BD-1080P] 美国派(番外篇)4:集体露营 American.Pie.Presents.Band.Camp.2005.1080p.BluRay.x264-PSYCHD 9.8

uump4 4天前 85

帖子完整标题:美国派(番外篇)4:集体露营 American.Pie.Presents.Band.Camp.2005.1080p.BluRay.x264-PSYCHD 9.84GB

悠悠MP4_MP4电影下载_美国派(番外篇)4:集体露营 American.Pie.Presents.Band.Camp.2005.1080p.BluRay.x264-PSYCHD 9.8

◎译  名 美国派(番外篇)4:集体露营 / American Pie 4 / 美国派:集体露营
◎片  名 American Pie Presents Band Camp
◎年  代 2005
◎产  地 美国
◎类  别 喜剧
◎语  言 英语
◎上映日期 2005-12-26(美国)
◎IMDb评分  5.1/10 from 66798 users
◎IMDb链接  https://www.imdb.com/title/tt0436058
◎豆瓣评分 6.3/10 from 19849 users
◎豆瓣链接 https://movie.douban.com/subject/1434257/
◎片  长 94分钟
◎导  演 Steve Rash
◎编  剧 亚当·赫兹 Adam Herz / Brad Riddell
◎主  演 尤金·列维 Eugene Levy
       泰德·希根布尔克  Tad Hilgenbrink
       阿莉尔·凯贝尔 Arielle Kebbel


◎标  签 喜剧 | 美国 | 青春 | 美国派 | 美国电影 | 性 | 性喜剧 | 校园

◎简  介 悠悠MP4_MP4电影下载_美国派(番外篇)4:集体露营 American.Pie.Presents.Band.Camp.2005.1080p.BluRay.x264-PSYCHD 9.8  

  硬条家族的一员——麦特(泰德?希根布尔克 Tad Hilgenbrink 饰)即将升入高三,他对家族前辈们的业绩羡慕不已,立志也要拍出一部刺激的个人电影作品,但是麦特的为人教人难以欣赏,嚣张的他把欢送毕业生的表演变成了一场闹剧,校方为了惩罚麦特,要求他加入仪队夏令营,如此麦特和担任仪队指挥的青梅竹马伊丽丝(阿莉尔?凯贝尔 Arielle Kebbel 饰)再次相聚,但伊丽丝厌恶麦特的种种恶作剧早已与其反目成仇。
  夏令营对渴望得到奖学金的伊丽丝意义重大,但是麦特却只顾用买来的各种偷拍设备为自己的香艳小电影搜集素材,或是与夏令营的明星队员作对。玩世不恭的麦特渐渐体会并理解了周围人群的追求,他与伊丽丝的裂痕也在渐渐弥合,这次夏令营会成为麦特的成长之旅么?

Video
ID                                       : 1
Format                                   : AVC
Format/Info                              : Advanced Video Codec
Format profile                           : [email protected]
Format settings                          : CABAC / 4 Ref Frames
Format settings, CABAC                   : Yes
Format settings, Reference frames        : 4 frames
Codec ID                                 : V_MPEG4/ISO/AVC
Duration                                 : 1 h 34 min
Bit rate                                 : 13.4 Mb/s
Width                                    : 1 920 pixels
Height                                   : 1 080 pixels
Display aspect ratio                     : 16:9
Frame rate mode                          : Constant
Frame rate                               : 23.976 (24000/1001/189150) FPS
Color space                              : YUV
Chroma subsampling                       : 4:2:0
Bit depth                                : 8 bits
Scan type                                : Progressive
Bits/(Pixel*Frame)                       : 0.270
Stream size                              : 8.65 GiB (88%)
Writing library                          : x264 core 159 r2991 1771b55
Encoding settings                        : cabac=1 / ref=4 / deblock=1:-3:-3 / analyse=0x3:0x113 / me=umh / subme=8 / psy=1 / psy_rd=1.00:0.00 / mixed_ref=1 / me_range=32 / chroma_me=1 / trellis=2 / 8x8dct=1 / cqm=0 / deadzone=21,11 / fast_pskip=1 / chroma_qp_offset=-2 / threads=34 / lookahead_threads=5 / sliced_threads=0 / nr=0 / decimate=1 / interlaced=0 / bluray_compat=0 / constrained_intra=0 / bframes=3 / b_pyramid=2 / b_adapt=2 / b_bias=0 / direct=3 / weightb=1 / open_gop=0 / weightp=2 / keyint=240 / keyint_min=24 / scenecut=40 / intra_refresh=0 / rc_lookahead=50 / rc=2pass / mbtree=1 / bitrate=13435 / ratetol=1.0 / qcomp=0.60 / qpmin=0 / qpmax=69 / qpstep=4 / cplxblur=20.0 / qblur=0.5 / ip_ratio=1.40 / aq=3:0.70
Default                                  : Yes
Forced                                   : No
Statistics Tags Issue                    : no_variable_data 1970-01-01 00:00:00 / no_variable_data 2010-02-22 21:41:29
FromStats_BitRate                        : 13429957
FromStats_Duration                       : 01:34:13.940000000
FromStats_FrameCount                     : 135559
FromStats_StreamSize                     : 9491521663

Audio
ID                                       : 2
Format                                   : DTS
Format/Info                              : Digital Theater Systems
Codec ID                                 : A_DTS
Duration                                 : 1 h 34 min
Bit rate mode                            : Constant
Bit rate                                 : 1 509 kb/s
Channel(s)                               : 6 channels
Channel layout                           : C L R Ls Rs LFE
Sampling rate                            : 48.0 kHz
Frame rate                               : 93.750 FPS (512 SPF)
Bit depth                                : 24 bits
Compression mode                         : Lossy
Stream size                              : 1 017 MiB (10%)
Language                                 : English
Default                                  : Yes
Forced                                   : No
Statistics Tags Issue                    : no_variable_data 1970-01-01 00:00:00 / no_variable_data 2010-02-22 21:41:29
FromStats_BitRate                        : 1509000
FromStats_Duration                       : 01:34:13.952000000
FromStats_FrameCount                     : 530058
FromStats_StreamSize                     : 1066476696

Text #1
ID                                       : 3
Format                                   : UTF-8
Codec ID                                 : S_TEXT/UTF8
Codec ID/Info                            : UTF-8 Plain Text
Language                                 : English
Default                                  : No
Forced                                   : No
Statistics Tags Issue                    : no_variable_data 1970-01-01 00:00:00 / no_variable_data 2010-02-22 21:41:29
FromStats_BitRate                        : 61
FromStats_Duration                       : 01:33:15.673000000
FromStats_FrameCount                     : 1197
FromStats_StreamSize                     : 43302

Text #2
ID                                       : 4
Format                                   : UTF-8
Codec ID                                 : S_TEXT/UTF8
Codec ID/Info                            : UTF-8 Plain Text
Title                                    : SDH
Language                                 : English
Default                                  : No
Forced                                   : No
Statistics Tags Issue                    : no_variable_data 1970-01-01 00:00:00 / no_variable_data 2010-02-22 21:41:29
FromStats_BitRate                        : 68
FromStats_Duration                       : 01:33:27.810000000
FromStats_FrameCount                     : 1410
FromStats_StreamSize                     : 48167

Menu
00:00:00.000                             : en:Chapter 01
00:10:01.184                             : en:Chapter 02
00:20:02.118                             : en:Chapter 03
00:30:02.634                             : en:Chapter 04
00:40:02.775                             : en:Chapter 05
00:50:03.751                             : en:Chapter 06
01:00:04.434                             : en:Chapter 07
01:10:04.450                             : en:Chapter 08
01:20:05.592                             : en:Chapter 09
01:30:05.859                             : en:Chapter 10





提示:如迅雷下载提示"任务出错"、"因版权无法下载",请尝试【迅雷5】
上传的附件:
最新回复 (0)
返回
本站所有资源均收集自互联网,没有提供影片资源存储, 也未参与录制、上传,若本站收录的资源无意侵犯了您的权益, 请联系邮箱:gogoimgs#gmail.com(#=@)