[更早] [欧美] [剧情] [WEB-1080P] 寂寞城市/七个女人的故事 Things.You.Can.Tell.Just.by.Looking.at.Her.2000.1080p.AMZN.WEBRip.D

uump4 3天前 42

帖子完整标题:寂寞城市/七个女人的故事 Things.You.Can.Tell.Just.by.Looking.at.Her.2000.1080p.AMZN.WEBRip.DDP5.1.x264-iKA 7.89GB

悠悠MP4_MP4电影下载_寂寞城市/七个女人的故事 Things.You.Can.Tell.Just.by.Looking.at.Her.2000.1080p.AMZN.WEBRip.D

◎译  名 寂寞城市 / 七个女人的故事 / 望穿伊人
◎片  名 Things You Can Tell Just by Looking at Her
◎年  代 1999
◎产  地 美国
◎类  别 剧情 / 爱情
◎语  言 英语
◎上映日期 2000-10-04
◎IMDb评分  6.5/10 from 6420 users
◎IMDb链接  https://www.imdb.com/title/tt0210358
◎豆瓣评分 7.6/10 from 783 users
◎豆瓣链接 https://movie.douban.com/subject/1304294/
◎片  长 109 分钟
◎导  演 Rodrigo García
◎编  剧 Rodrigo García
◎主  演 Glenn Close
       Cameron Diaz
       Calista Flockhart
       Kathy Baker
       Amy Brenneman
       Valeria Golino


◎标  签 女性 | 美国电影 | 美国 | 爱情 | 2000 | Cameron_Diaz | 剧情 | 电影

◎简  介 悠悠MP4_MP4电影下载_寂寞城市/七个女人的故事 Things.You.Can.Tell.Just.by.Looking.at.Her.2000.1080p.AMZN.WEBRip.D  

  影片由5个看似没有联系的片段组成:专业的银行女经理竟在爱情上吃了闷亏;优雅的心理医生渴望一个懂她的男人;一对同性恋人关系正面临最艰难的考验……她们原本独自面对人生的挑战,直到一桩自杀事件发生,五个女子的心灵从此有了令人惊喜的交会。

◎获奖情况  

  第53届戛纳电影节(2000)
  一种关注单元 一种关注大奖 罗德里戈·加西亚

Video
ID                                       : 1
Format                                   : AVC
Format/Info                              : Advanced Video Codec
Format profile                           : [email protected]
Format settings                          : CABAC / 4 Ref Frames
Format settings, CABAC                   : Yes
Format settings, Reference frames        : 4 frames
Codec ID                                 : V_MPEG4/ISO/AVC
Duration                                 : 1 h 49 min
Bit rate mode                            : Constant
Bit rate                                 : 10 000 kb/s
Width                                    : 1 920 pixels
Height                                   : 1 040 pixels
Display aspect ratio                     : 1.85:1
Frame rate mode                          : Constant
Frame rate                               : 23.976 (24000/1001/189150) FPS
Color space                              : YUV
Chroma subsampling                       : 4:2:0
Bit depth                                : 8 bits
Scan type                                : Progressive
Bits/(Pixel*Frame)                       : 0.209
Stream size                              : 7.40 GiB (94%)
Default                                  : Yes
Forced                                   : No
Color range                              : Limited
Color primaries                          : BT.709
Transfer characteristics                 : BT.709
Matrix coefficients                      : BT.709

Audio
ID                                       : 2
Format                                   : E-AC-3
Format/Info                              : Enhanced AC-3
Commercial name                          : Dolby Digital Plus
Codec ID                                 : A_EAC3
Duration                                 : 1 h 49 min
Bit rate mode                            : Constant
Bit rate                                 : 640 kb/s
Channel(s)                               : 6 channels
Channel layout                           : L R C LFE Ls Rs
Sampling rate                            : 48.0 kHz
Frame rate                               : 31.250 FPS (1536 SPF)
Compression mode                         : Lossy
Stream size                              : 501 MiB (6%)
Language                                 : English
Service kind                             : Complete Main
Default                                  : Yes
Forced                                   : No

Text
ID                                       : 3
Format                                   : UTF-8
Codec ID                                 : S_TEXT/UTF8
Codec ID/Info                            : UTF-8 Plain Text
Duration                                 : 1 h 44 min
Bit rate                                 : 47 b/s
Count of elements                        : 1184
Stream size                              : 36.2 KiB (0%)
Title                                    : SDH
Language                                 : English
Default                                  : No
Forced                                   : No


悠悠MP4_MP4电影下载_寂寞城市/七个女人的故事 Things.You.Can.Tell.Just.by.Looking.at.Her.2000.1080p.AMZN.WEBRip.D悠悠MP4_MP4电影下载_寂寞城市/七个女人的故事 Things.You.Can.Tell.Just.by.Looking.at.Her.2000.1080p.AMZN.WEBRip.D悠悠MP4_MP4电影下载_寂寞城市/七个女人的故事 Things.You.Can.Tell.Just.by.Looking.at.Her.2000.1080p.AMZN.WEBRip.D


提示:如迅雷下载提示"任务出错"、"因版权无法下载",请尝试【迅雷5】
上传的附件:
最新回复 (0)
返回
本站所有资源均收集自互联网,没有提供影片资源存储, 也未参与录制、上传,若本站收录的资源无意侵犯了您的权益, 请联系邮箱:gogoimgs#gmail.com(#=@)