[2009] [欧美] [喜剧] [BD-1080P] 分家总动员 House.Broken.2009.1080p.BluRay.x264.DTS-FGT 8.09GB

uump4 8天前 107

悠悠MP4_MP4电影下载_分家总动员 House.Broken.2009.1080p.BluRay.x264.DTS-FGT 8.09GB

◎译  名 分家总动员
◎片  名 House Broken
◎年  代 2009
◎产  地 美国
◎类  别 喜剧
◎语  言 英语
◎上映日期 2009
◎IMDb评分  4.7/10 from 2066 users
◎IMDb链接  https://www.imdb.com/title/tt1054631
◎豆瓣评分 5.6/10 from 417 users
◎豆瓣链接 https://movie.douban.com/subject/3932051/
◎片  长 84 分钟
◎导  演 Sam Harper
◎编  剧 Sam Harper
◎主  演 丹尼·德维托 Danny DeVito
       斯凯勒·斯通 Skyler Stone
       瑞恩·汉森 Ryan Hansen
       布丽·拉尔森 Brie Larson
       托马斯·F·威尔森 Thomas F. Wilson
       琪兰·席普卡 Kiernan Shipka
       Caitlin Crosby


◎标  签 喜剧 | 美国 | 家庭 | 美国电影 | 2009 | 亲情 | 电影 | 烂片

◎简  介  

  Tom Cathcart在消防队工作了25年,退休之后,他希望和爱妻开心地度过退休时光。为此他绞尽脑汁,千方百计把奇懒无比、赖在家里不愿独立生活的20多岁的儿子赶出家门。

Video
ID                                       : 1
Format                                   : AVC
Format/Info                              : Advanced Video Codec
Format profile                           : [email protected]
Format settings                          : CABAC / 4 Ref Frames
Format settings, CABAC                   : Yes
Format settings, Reference frames        : 4 frames
Codec ID                                 : V_MPEG4/ISO/AVC
Duration                                 : 1 h 31 min
Bit rate                                 : 10.9 Mb/s
Nominal bit rate                         : 11.5 Mb/s
Width                                    : 1 920 pixels
Height                                   : 1 080 pixels
Display aspect ratio                     : 16:9
Frame rate mode                          : Constant
Frame rate                               : 23.976 (24000/1001/189150) FPS
Color space                              : YUV
Chroma subsampling                       : 4:2:0
Bit depth                                : 8 bits
Scan type                                : Progressive
Bits/(Pixel*Frame)                       : 0.219
Stream size                              : 6.97 GiB (86%)
Writing library                          : x264 core 144 r96 40bb568
Encoding settings                        : cabac=1 / ref=4 / deblock=1:-2:-2 / analyse=0x3:0x113 / me=umh / subme=7 / psy=1 / psy_rd=1.00:0.15 / mixed_ref=1 / me_range=16 / chroma_me=1 / trellis=1 / 8x8dct=1 / cqm=0 / deadzone=21,11 / fast_pskip=1 / chroma_qp_offset=-3 / threads=12 / lookahead_threads=3 / sliced_threads=0 / nr=0 / decimate=1 / interlaced=0 / bluray_compat=0 / constrained_intra=0 / bframes=3 / b_pyramid=2 / b_adapt=2 / b_bias=0 / direct=3 / weightb=1 / open_gop=0 / weightp=2 / keyint=250 / keyint_min=25 / scenecut=40 / intra_refresh=0 / rc_lookahead=50 / rc=abr / mbtree=1 / bitrate=11500 / ratetol=1.0 / qcomp=0.60 / qpmin=0 / qpmax=69 / qpstep=4 / vbv_maxrate=31250 / vbv_bufsize=31250 / nal_hrd=none / filler=0 / ip_ratio=1.40 / aq=1:1.00
Language                                 : English
Default                                  : Yes
Forced                                   : No

Audio
ID                                       : 2
Format                                   : DTS
Format/Info                              : Digital Theater Systems
Codec ID                                 : A_DTS
Duration                                 : 1 h 31 min
Bit rate mode                            : Constant
Bit rate                                 : 1 509 kb/s
Channel(s)                               : 6 channels
Channel layout                           : C L R Ls Rs LFE
Sampling rate                            : 48.0 kHz
Frame rate                               : 93.750 FPS (512 SPF)
Bit depth                                : 24 bits
Compression mode                         : Lossy
Stream size                              : 987 MiB (12%)
Language                                 : English
Default                                  : Yes
Forced                                   : No

Menu
00:00:00.000                             : en:00:00:00.000
00:04:50.040                             : en:00:04:50.040
00:14:40.004                             : en:00:14:40.004
00:22:25.010                             : en:00:22:25.010
00:33:29.966                             : en:00:33:29.966
00:41:44.001                             : en:00:41:44.001
00:54:28.974                             : en:00:54:28.974
01:03:08.952                             : en:01:03:08.952
01:09:47.934                             : en:01:09:47.934
01:19:14.875                             : en:01:19:14.875
01:25:15.902                             : en:01:25:15.902
01:29:19.896                             : en:01:29:19.896


悠悠MP4_MP4电影下载_分家总动员 House.Broken.2009.1080p.BluRay.x264.DTS-FGT 8.09GB


提示:如迅雷下载提示"任务出错"、"因版权无法下载",请尝试【迅雷5】
上传的附件:
最新回复 (0)
返回
本站所有资源均收集自互联网,没有提供影片资源存储, 也未参与录制、上传,若本站收录的资源无意侵犯了您的权益, 请联系邮箱:gogoimgs#gmail.com(#=@)