[更早] [欧美] [剧情] [BD-1080P] 魔鬼女大兵/伴我雄心 G.I.Jane.1997.1080p.BluRay.x264.DTS-FGT 10.33GB

uump4 11天前 169

悠悠MP4_MP4电影下载_魔鬼女大兵/伴我雄心 G.I.Jane.1997.1080p.BluRay.x264.DTS-FGT 10.33GB

◎译  名 魔鬼女大兵 / 伴我雄心 / 女兵简
◎片  名 G.I. Jane
◎年  代 1997
◎产  地 美国
◎类  别 剧情 / 动作
◎语  言 英语
◎上映日期 1997-08-22
◎IMDb评分  5.9/10 from 71597 users
◎IMDb链接  https://www.imdb.com/title/tt0119173
◎豆瓣评分 7.2/10 from 3884 users
◎豆瓣链接 https://movie.douban.com/subject/1298872/
◎片  长 124 分钟
◎导  演 Ridley Scott
◎编  剧 David Twohy / Danielle Alexandra
◎主  演 Demi Moore
       Viggo Mortensen
       Anne Bancroft
       Jason Beghe


◎标  签 美国 | 动作 | 战争 | 女性 | 美国电影 | DemiMoore | 1997 | RidleyScott

◎简  介  

  作为一枚政治筹码,海军情报官欧尼尔(黛咪·摩尔 Demi Moore 饰)成为了美国历史上第一个参加特种部队“海豹突击队”训练的女性军官。凭借此事,一直呼吁男女平等的参议员狄海雯(安妮·班克罗夫特 Anne Bancroft 饰)获得了诸多选票。然而,利欲熏心的狄海雯根本就不关心欧尼尔作为个体的感受和遭遇,因为她心里明白,欧尼尔根本不可能完成特种部队里残酷而又可怕的训练。
  让所有人大吃一惊的是,欧尼尔不仅出色的完成了训练任务,甚至有可能通过最终考试成为特种部队正式的一员,在此节骨眼上,狄海雯只得使出阴招,以欧尼尔为同性恋的虚假理由将其逐出了队伍。在朋友的帮助下,欧尼尔揭穿了狄海雯的阴谋,不仅如此,她还一次实战任务中凭借着自己的智慧大展拳脚,获得了同伴的尊重。

Video
ID                                       : 1
Format                                   : AVC
Format/Info                              : Advanced Video Codec
Format profile                           : [email protected]
Format settings, CABAC                   : Yes
Format settings, ReFrames                : 5 frames
Codec ID                                 : V_MPEG4/ISO/AVC
Duration                                 : 2h 5mn
Bit rate                                 : 10.3 Mbps
Width                                    : 1 920 pixels
Height                                   : 820 pixels
Display aspect ratio                     : 2.35:1
Frame rate mode                          : Constant
Frame rate                               : 23.976 fps
Color space                              : YUV
Chroma subsampling                       : 4:2:0
Bit depth                                : 8 bits
Scan type                                : Progressive
Bits/(Pixel*Frame)                       : 0.273
Stream size                              : 8.81 GiB (85%)
Writing library                          : x264 core 67 r1127M 8d82fec
Encoding settings                        : cabac=1 / ref=5 / deblock=1:-3:-2 / analyse=0x3:0x113 / me=umh / subme=9 / psy_rd=1.5:0.7 / mixed_ref=1 / me_range=32 / chroma_me=1 / trellis=2 / 8x8dct=1 / cqm=0 / deadzone=21,11 / chroma_qp_offset=-4 / threads=6 / nr=0 / decimate=0 / mbaff=0 / bframes=5 / b_pyramid=1 / b_adapt=2 / b_bias=0 / direct=3 / wpredb=1 / keyint=250 / keyint_min=25 / scenecut=40 / rc=2pass / bitrate=10300 / ratetol=1.0 / qcomp=0.60 / qpmin=10 / qpmax=51 / qpstep=4 / cplxblur=20.0 / qblur=0.5 / vbv_maxrate=50000 / vbv_bufsize=50000 / ip_ratio=1.40 / pb_ratio=1.30 / aq=1:1.00
Language                                 : English
Default                                  : Yes
Forced                                   : No

Audio
ID                                       : 2
Format                                   : DTS
Format/Info                              : Digital Theater Systems
Mode                                     : 16
Format settings, Endianness              : Big
Codec ID                                 : A_DTS
Duration                                 : 2h 5mn
Bit rate mode                            : Constant
Bit rate                                 : 1 510 Kbps
Channel(s)                               : 6 channels
Channel positions                        : Front: L C R, Side: L R, LFE
Sampling rate                            : 48.0 KHz
Bit depth                                : 24 bits
Compression mode                         : Lossy
Stream size                              : 1.32 GiB (13%)
Language                                 : English
Default                                  : Yes
Forced                                   : No


悠悠MP4_MP4电影下载_魔鬼女大兵/伴我雄心 G.I.Jane.1997.1080p.BluRay.x264.DTS-FGT 10.33GB悠悠MP4_MP4电影下载_魔鬼女大兵/伴我雄心 G.I.Jane.1997.1080p.BluRay.x264.DTS-FGT 10.33GB悠悠MP4_MP4电影下载_魔鬼女大兵/伴我雄心 G.I.Jane.1997.1080p.BluRay.x264.DTS-FGT 10.33GB悠悠MP4_MP4电影下载_魔鬼女大兵/伴我雄心 G.I.Jane.1997.1080p.BluRay.x264.DTS-FGT 10.33GB悠悠MP4_MP4电影下载_魔鬼女大兵/伴我雄心 G.I.Jane.1997.1080p.BluRay.x264.DTS-FGT 10.33GB


提示:如迅雷下载提示"任务出错"、"因版权无法下载",请尝试【迅雷5】
上传的附件:
最新回复 (0)
返回
本站所有资源均收集自互联网,没有提供影片资源存储, 也未参与录制、上传,若本站收录的资源无意侵犯了您的权益, 请联系邮箱:gogoimgs#gmail.com(#=@)