[2007] [欧美] [喜剧] [BD-1080P] 老娘说了算/因为我这么说 Because.I.Said.So.2007.1080p.BluRay.x264.DD5.1-FGT 7.94GB

uump4 6天前 72

悠悠MP4_MP4电影下载_老娘说了算/因为我这么说 Because.I.Said.So.2007.1080p.BluRay.x264.DD5.1-FGT 7.94GB

◎译  名 老娘说了算 / 因为我这么说 / 爱得过火
◎片  名 Because I Said So
◎年  代 2007
◎产  地 美国
◎类  别 喜剧 / 爱情 / 家庭
◎语  言 英语 / 汉语普通话
◎上映日期 2007-02-02
◎IMDb评分  5.7/10 from 36752 users
◎IMDb链接  https://www.imdb.com/title/tt0490084
◎豆瓣评分 6.5/10 from 3112 users
◎豆瓣链接 https://movie.douban.com/subject/1930542/
◎片  长 USA: 102 分钟
◎导  演 Michael Lehmann
◎编  剧 Karen Leigh Hopkins / Jessie Nelson
◎主  演 黛安·基顿 Diane Keaton
       曼迪·摩尔 Mandy Moore
       盖布瑞·马赫特 Gabriel Macht
       汤姆·艾弗瑞特·斯科特 Tom Everett Scott
       劳伦·格拉汉姆 Lauren Graham
       派珀·佩拉博 Piper Perabo
       科林·费格森 Colin Ferguson


◎标  签 美国 | 喜剧 | 美国电影 | 爱情 | 家庭 | 母女关系 | 2007 | 电影

◎简  介  

  达芙妮(黛安·基顿)是个漂亮高雅的单身母亲,独自带大三个如花似玉的女儿。眼看就要庆祝六十大寿的她,却总有件事放不下,小女儿蜜莉(曼迪·摩尔)的终身幸福仍无定音。虽然两个大女儿都一再劝她放手、放心让蜜莉自己寻觅真爱,可达芙妮还是抑制不住亲自操刀,瞒着女儿在网上打了征友广告。
  在达芙妮的几经面试下,得意女婿终于上门,可在此时却另有个看起来风流倜傥的音乐家强尼(加布里埃尔·马赫特)闯入蜜莉的心。达芙妮操心过度的征兆越来越明显,所有的精力一滴不落的倾注在女儿身上。就在她有意无意对女儿的生活无孔不入时,强尼的叔叔出现了,竟让达芙妮怦然心动。被意外打开心门的达芙妮渐渐懂得了女儿的心,明白自己真的是爱的过火了。

Video
ID                                       : 1
Format                                   : AVC
Format/Info                              : Advanced Video Codec
Format profile                           : [email protected]
Format settings, CABAC                   : Yes
Format settings, ReFrames                : 4 frames
Codec ID                                 : V_MPEG4/ISO/AVC
Duration                                 : 1h 41mn
Bit rate                                 : 10.8 Mbps
Width                                    : 1 920 pixels
Height                                   : 1 080 pixels
Display aspect ratio                     : 16:9
Frame rate mode                          : Constant
Frame rate                               : 23.976 (24000/1001) fps
Color space                              : YUV
Chroma subsampling                       : 4:2:0
Bit depth                                : 8 bits
Scan type                                : Progressive
Bits/(Pixel*Frame)                       : 0.218
Stream size                              : 7.51 GiB (95%)
Writing library                          : x264 core 67 r1162M f7bfcfa
Encoding settings                        : cabac=1 / ref=4 / deblock=1:-1:-1 / analyse=0x3:0x113 / me=umh / subme=7 / psy_rd=1.0:0.0 / mixed_ref=1 / me_range=16 / chroma_me=1 / trellis=1 / 8x8dct=1 / cqm=0 / deadzone=21,11 / chroma_qp_offset=-2 / threads=6 / nr=0 / decimate=1 / mbaff=0 / bframes=3 / b_pyramid=1 / b_adapt=1 / b_bias=0 / direct=3 / wpredb=1 / keyint=250 / keyint_min=25 / scenecut=40 / rc=2pass / bitrate=10841 / ratetol=1.0 / qcomp=0.60 / qpmin=10 / qpmax=51 / qpstep=4 / cplxblur=20.0 / qblur=0.5 / ip_ratio=1.40 / pb_ratio=1.30 / aq=1:1.10
Language                                 : English
Default                                  : Yes
Forced                                   : No
Color range                              : Full

Audio
ID                                       : 2
Format                                   : AC-3
Format/Info                              : Audio Coding 3
Mode extension                           : CM (complete main)
Format settings, Endianness              : Big
Codec ID                                 : A_AC3
Duration                                 : 1h 41mn
Bit rate mode                            : Constant
Bit rate                                 : 384 Kbps
Channel(s)                               : 6 channels
Channel positions                        : Front: L C R, Side: L R, LFE
Sampling rate                            : 48.0 KHz
Frame rate                               : 31.250 fps (1536 spf)
Compression mode                         : Lossy
Stream size                              : 278 MiB (3%)
Language                                 : English
Default                                  : Yes
Forced                                   : No


悠悠MP4_MP4电影下载_老娘说了算/因为我这么说 Because.I.Said.So.2007.1080p.BluRay.x264.DD5.1-FGT 7.94GB悠悠MP4_MP4电影下载_老娘说了算/因为我这么说 Because.I.Said.So.2007.1080p.BluRay.x264.DD5.1-FGT 7.94GB悠悠MP4_MP4电影下载_老娘说了算/因为我这么说 Because.I.Said.So.2007.1080p.BluRay.x264.DD5.1-FGT 7.94GB悠悠MP4_MP4电影下载_老娘说了算/因为我这么说 Because.I.Said.So.2007.1080p.BluRay.x264.DD5.1-FGT 7.94GB悠悠MP4_MP4电影下载_老娘说了算/因为我这么说 Because.I.Said.So.2007.1080p.BluRay.x264.DD5.1-FGT 7.94GB


提示:如迅雷下载提示"任务出错"、"因版权无法下载",请尝试【迅雷5】
上传的附件:
最新回复 (0)
返回
本站所有资源均收集自互联网,没有提供影片资源存储, 也未参与录制、上传,若本站收录的资源无意侵犯了您的权益, 请联系邮箱:gogoimgs#gmail.com(#=@)