[更早] [其他] [动作] [BD-1080P] 核弹快车/核弹总动员 Detonator.1993.1080p.BluRay.x264.DD5.1-FGT 6.25GB

uump4 6天前 163

悠悠MP4_MP4电影下载_核弹快车/核弹总动员 Detonator.1993.1080p.BluRay.x264.DD5.1-FGT 6.25GB

◎译  名 核弹快车 / 核弹总动员
◎片  名 Death Train
◎年  代 1993
◎产  地 斯洛文尼亚 / 英国 / 美国
◎类  别 动作 / 惊悚
◎语  言 英语 / 斯洛文尼亚语
◎上映日期 1993-04-14(美国)
◎IMDb评分  5.3/10 from 3262 users
◎IMDb链接  https://www.imdb.com/title/tt0106689
◎豆瓣评分 5.8/10 from 110 users
◎豆瓣链接 https://movie.douban.com/subject/3058758/
◎片  长 100分钟
◎导  演 大卫·杰克逊 David Jackson
◎编  剧 大卫·杰克逊 David Jackson
◎主  演 皮尔斯·布鲁斯南 Pierce Brosnan
       帕特里克·斯图尔特 Patrick Stewart
       亚历姗卓拉·保罗 Alexandra Paul
       泰德·拉文 Ted Levine
       克里斯托弗·李 Christopher Lee
       John Abineri
       Nic D'Avirro
       克拉克·彼得斯 Clarke Peters


◎标  签 美国 | 动作 | 1993 | 美国电影 | 皮尔斯布鲁斯南 | 皮尔斯·布鲁斯南 | 童年回忆 | 核弹总动员

◎简  介  

  UNACO安全组织,将一枚核弹火车送往英国。不料遭世界恐怖圣战组织劫持,欲转往苏俄,其恐怖组织乃由苏俄支持。
  安全组织上司派出特遣小组拦截,队长Mike Graham(Pierce Brosnan)带著精锐战友,一路拦截……

Video
ID                                       : 1
Format                                   : AVC
Format/Info                              : Advanced Video Codec
Format profile                           : [email protected]
Format settings                          : CABAC / 4 Ref Frames
Format settings, CABAC                   : Yes
Format settings, Reference frames        : 4 frames
Codec ID                                 : V_MPEG4/ISO/AVC
Duration                                 : 1 h 38 min
Bit rate                                 : 8 648 kb/s
Width                                    : 1 920 pixels
Height                                   : 1 080 pixels
Display aspect ratio                     : 16:9
Frame rate mode                          : Constant
Frame rate                               : 23.976 (23976/1000/189150) FPS
Color space                              : YUV
Chroma subsampling                       : 4:2:0
Bit depth                                : 8 bits
Scan type                                : Progressive
Bits/(Pixel*Frame)                       : 0.174
Stream size                              : 5.82 GiB (93%)
Writing library                          : x264 core 148 r2638 7599210
Encoding settings                        : cabac=1 / ref=4 / deblock=1:-3:-3 / analyse=0x3:0x113 / me=umh / subme=7 / psy=1 / psy_rd=1.00:0.15 / mixed_ref=1 / me_range=16 / chroma_me=1 / trellis=1 / 8x8dct=1 / cqm=0 / deadzone=21,11 / fast_pskip=0 / chroma_qp_offset=-3 / threads=10 / lookahead_threads=1 / sliced_threads=0 / nr=0 / decimate=1 / interlaced=0 / bluray_compat=0 / constrained_intra=0 / bframes=3 / b_pyramid=2 / b_adapt=1 / b_bias=0 / direct=3 / weightb=1 / open_gop=0 / weightp=2 / keyint=250 / keyint_min=23 / scenecut=40 / intra_refresh=0 / rc_lookahead=40 / rc=2pass / mbtree=1 / bitrate=8648 / ratetol=1.0 / qcomp=0.60 / qpmin=0 / qpmax=69 / qpstep=4 / cplxblur=20.0 / qblur=0.5 / ip_ratio=1.40 / aq=1:1.00
Default                                  : Yes
Forced                                   : No

Audio
ID                                       : 2
Format                                   : AC-3
Format/Info                              : Audio Coding 3
Commercial name                          : Dolby Digital
Codec ID                                 : A_AC3
Duration                                 : 1 h 38 min
Bit rate mode                            : Constant
Bit rate                                 : 448 kb/s
Channel(s)                               : 6 channels
Channel layout                           : L R C LFE Ls Rs
Sampling rate                            : 48.0 kHz
Frame rate                               : 31.250 FPS (1536 SPF)
Compression mode                         : Lossy
Stream size                              : 315 MiB (5%)
Language                                 : English
Service kind                             : Complete Main
Default                                  : No
Forced                                   : No


悠悠MP4_MP4电影下载_核弹快车/核弹总动员 Detonator.1993.1080p.BluRay.x264.DD5.1-FGT 6.25GB悠悠MP4_MP4电影下载_核弹快车/核弹总动员 Detonator.1993.1080p.BluRay.x264.DD5.1-FGT 6.25GB悠悠MP4_MP4电影下载_核弹快车/核弹总动员 Detonator.1993.1080p.BluRay.x264.DD5.1-FGT 6.25GB悠悠MP4_MP4电影下载_核弹快车/核弹总动员 Detonator.1993.1080p.BluRay.x264.DD5.1-FGT 6.25GB悠悠MP4_MP4电影下载_核弹快车/核弹总动员 Detonator.1993.1080p.BluRay.x264.DD5.1-FGT 6.25GB悠悠MP4_MP4电影下载_核弹快车/核弹总动员 Detonator.1993.1080p.BluRay.x264.DD5.1-FGT 6.25GB


提示:如迅雷下载提示"任务出错"、"因版权无法下载",请尝试【迅雷5】
上传的附件:
最新回复 (0)
返回
本站所有资源均收集自互联网,没有提供影片资源存储, 也未参与录制、上传,若本站收录的资源无意侵犯了您的权益, 请联系邮箱:gogoimgs#gmail.com(#=@)