[2009] [欧美] [喜剧] [BD-1080P] 害虫横行 Infestation.2009.1080p.BluRay.x264.DTS-FGT 7.94GB

uump4 7天前 147

悠悠MP4_MP4电影下载_害虫横行 Infestation.2009.1080p.BluRay.x264.DTS-FGT 7.94GB

◎译  名 害虫横行
◎片  名 Infestation
◎年  代 2009
◎产  地 美国
◎类  别 喜剧 / 动作 / 科幻 / 恐怖
◎语  言 英语
◎上映日期 2009-02-05
◎IMDb评分  5.9/10 from 8723 users
◎IMDb链接  https://www.imdb.com/title/tt1020543
◎豆瓣评分 5.1/10 from 1688 users
◎豆瓣链接 https://movie.douban.com/subject/2212176/
◎片  长 91 分钟
◎导  演 Kyle Rankin
◎编  剧 凯尔·兰金 Kyle Rankin
◎主  演 Chris Marquette ...  Cooper
       Brooke Nevin ...  Sara
       Jim Cody Williams ...  Jed


◎标  签 科幻 | 美国 | 恐怖 | 喜剧 | 惊悚 | 害虫横行 | 美国电影 | 2009

◎简  介  

  供职于某药品公司服务部门的库伯(克里斯?马奎特 Chris Marquette 饰)是一个吊儿郎当混日子的小青年,他上班迟到、工作马虎、对同事恶作剧,种种恶习让主管玛丽安(Deborah Geffner 饰)大为不满。在库伯被解雇的那个早晨,一场未知的灾难突然袭来。当库伯从昏迷中苏醒时,发现全身缠满白茧,四周凌乱不堪。更令他难以置信的是,身形硕大的甲虫来往穿梭,对他进行猛烈的攻击。一番搏斗之后,库伯侥幸得胜,他随后营救了玛丽安及其女儿莎拉(Brooke Nevin 饰),但玛丽安最终被昆虫虏上天空。经过莎拉和库伯德一番努力,他们又拯救了多个被困的人类,这群幸存者必须想尽办法和这群巨大的昆虫进行搏斗,以抓住生存的机会……

Video
ID                                       : 1
Format                                   : AVC
Format/Info                              : Advanced Video Codec
Format profile                           : [email protected]
Format settings, CABAC                   : Yes
Format settings, ReFrames                : 4 frames
Codec ID                                 : V_MPEG4/ISO/AVC
Duration                                 : 1h 31mn
Bit rate                                 : 11.0 Mbps
Width                                    : 1 920 pixels
Height                                   : 1 040 pixels
Display aspect ratio                     : 1.85:1
Frame rate mode                          : Constant
Frame rate                               : 23.976 fps
Color space                              : YUV
Chroma subsampling                       : 4:2:0
Bit depth                                : 8 bits
Scan type                                : Progressive
Bits/(Pixel*Frame)                       : 0.229
Stream size                              : 6.82 GiB (86%)
Writing library                          : x264 core 72 r1217 5e9ae4c
Encoding settings                        : cabac=1 / ref=4 / deblock=1:0:0 / analyse=0x3:0x133 / me=umh / subme=7 / psy=1 / psy_rd=1.0:0.0 / mixed_ref=1 / me_range=16 / chroma_me=1 / trellis=1 / 8x8dct=1 / cqm=0 / deadzone=21,11 / chroma_qp_offset=-2 / threads=12 / nr=0 / decimate=1 / mbaff=0 / bframes=3 / b_pyramid=1 / b_adapt=1 / b_bias=0 / direct=1 / wpredb=1 / keyint=250 / keyint_min=25 / scenecut=40 / rc=2pass / mbtree=0 / bitrate=10975 / ratetol=1.0 / qcomp=0.60 / qpmin=10 / qpmax=51 / qpstep=4 / cplxblur=20.0 / qblur=0.5 / ip_ratio=1.40 / pb_ratio=1.30 / aq=1:1.00
Language                                 : English
Default                                  : Yes
Forced                                   : No

Audio
ID                                       : 2
Format                                   : DTS
Format/Info                              : Digital Theater Systems
Mode                                     : 16
Format settings, Endianness              : Big
Codec ID                                 : A_DTS
Duration                                 : 1h 31mn
Bit rate mode                            : Constant
Bit rate                                 : 1 509 Kbps
Channel(s)                               : 6 channels
Channel positions                        : Front: L C R, Side: L R, LFE
Sampling rate                            : 48.0 KHz
Bit depth                                : 24 bits
Compression mode                         : Lossy
Stream size                              : 983 MiB (12%)
Language                                 : English
Default                                  : Yes
Forced                                   : No


悠悠MP4_MP4电影下载_害虫横行 Infestation.2009.1080p.BluRay.x264.DTS-FGT 7.94GB悠悠MP4_MP4电影下载_害虫横行 Infestation.2009.1080p.BluRay.x264.DTS-FGT 7.94GB悠悠MP4_MP4电影下载_害虫横行 Infestation.2009.1080p.BluRay.x264.DTS-FGT 7.94GB悠悠MP4_MP4电影下载_害虫横行 Infestation.2009.1080p.BluRay.x264.DTS-FGT 7.94GB悠悠MP4_MP4电影下载_害虫横行 Infestation.2009.1080p.BluRay.x264.DTS-FGT 7.94GB悠悠MP4_MP4电影下载_害虫横行 Infestation.2009.1080p.BluRay.x264.DTS-FGT 7.94GB


提示:如迅雷下载提示"任务出错"、"因版权无法下载",请尝试【迅雷5】
上传的附件:
最新回复 (0)
返回
本站所有资源均收集自互联网,没有提供影片资源存储, 也未参与录制、上传,若本站收录的资源无意侵犯了您的权益, 请联系邮箱:gogoimgs#gmail.com(#=@)