[更早] [欧美] [剧情] [BD-1080P] 第六感/灵异第六感 The.Sixth.Sense.1999.1080p.BluRay.x264.DTS-FGT 8.11GB

uump4 7天前 130

悠悠MP4_MP4电影下载_第六感/灵异第六感 The.Sixth.Sense.1999.1080p.BluRay.x264.DTS-FGT 8.11GB

◎译  名 第六感 / 灵异第六感(台) / 鬼眼(港)
◎片  名 The Sixth Sense
◎年  代 1999
◎产  地 美国
◎类  别 剧情 / 悬疑 / 惊悚
◎语  言 英语 / 拉丁语 / 西班牙语
◎上映日期 1999-08-06(美国)
◎IMDb评分  8.1/10 from 888026 users
◎IMDb链接  https://www.imdb.com/title/tt0167404
◎豆瓣评分 8.9/10 from 392880 users
◎豆瓣链接 https://movie.douban.com/subject/1297630/
◎片  长 107分钟
◎导  演 M·奈特·沙马兰 M. Night Shyamalan
◎编  剧 M·奈特·沙马兰 M. Night Shyamalan
◎主  演 布鲁斯·威利斯 Bruce Willis
       海利·乔·奥斯蒙 Haley Joel Osment
       托妮·科莱特 Toni Collette
       奥莉维亚·威廉姆斯 Olivia Williams
       唐尼·沃尔伯格 Donnie Wahlberg
       特拉沃·摩根 Trevor Morgan
       彼得·安东尼·唐伯蒂斯 Peter Anthony Tambakis
       格伦·菲茨杰拉德 Glenn Fitzgerald
       米莎·巴顿 Mischa Barton
       Lisa Summerour
       Firdous Bamji
       Jeffrey Zubernis


◎标  签 悬疑 | 惊悚 | 灵异 | 美国 | 心理 | 经典 | 剧情 | 恐怖

◎简  介  

  麦克(布鲁斯·威利斯 饰)是著名儿童心理学家,却也有始终未能治愈的患者,甚至因此遭到枪击,这名少年随后也饮枪自毙。这给麦克带来很大心理阴影,一年后他找到另一个症状很像这名患者的男孩柯尔(海利·乔·奥斯蒙 饰),并耐心的做起了他的医生。柯尔并不容易接近,但麦克还是慢慢赢得 了他的信任,得知了柯尔的秘密。原来柯尔有着灵异的第六感,可以看到鬼魂。虽然这令人感到难以置信,但麦克在证实了事情的真相后还是帮助柯尔接受了这个事实。
  可是就在问题即将得到解决的时候,麦克却在柯尔的引导下,发现了一个更令人震惊的秘密……

◎获奖情况  

  第72届奥斯卡金像奖(2000)
  最佳影片(提名) 凯瑟琳·肯尼迪 / Barry Mendel / 弗兰克·马歇尔
  最佳导演(提名) M·奈特·沙马兰
  最佳男配角(提名) 海利·乔·奥斯蒙
  最佳女配角(提名) 托妮·科莱特
  最佳原创剧本(提名) M·奈特·沙马兰
  最佳剪辑(提名) Andrew Mondshein

  第56届戛纳电影节(2003)
  DVD Design Award

  第57届金球奖(2000)
  电影类 最佳男配角(提名) 海利·乔·奥斯蒙
  电影类 最佳编剧(提名) M·奈特·沙马兰

  第53届英国电影学院奖(2000)
  电影奖 最佳影片(提名) 凯瑟琳·肯尼迪 / Barry Mendel / 弗兰克·马歇尔
  电影奖 最佳导演(提名) M·奈特·沙马兰
  电影奖 最佳原创剧本(提名) M·奈特·沙马兰
  电影奖 最佳剪辑(提名) Andrew Mondshein

  第23届日本电影学院奖(2000)
  最佳外语片

Video
ID                                       : 1
Format                                   : AVC
Format/Info                              : Advanced Video Codec
Format profile                           : [email protected]
Format settings, CABAC                   : Yes
Format settings, ReFrames                : 4 frames
Codec ID                                 : V_MPEG4/ISO/AVC
Duration                                 : 1h 47mn
Bit rate                                 : 9 088 Kbps
Width                                    : 1 920 pixels
Height                                   : 1 040 pixels
Display aspect ratio                     : 1.85:1
Frame rate mode                          : Constant
Frame rate                               : 23.976 fps
Color space                              : YUV
Chroma subsampling                       : 4:2:0
Bit depth                                : 8 bits
Scan type                                : Progressive
Bits/(Pixel*Frame)                       : 0.190
Stream size                              : 6.82 GiB (84%)
Writing library                          : x264 core 130 r2273 b3065e6
Encoding settings                        : cabac=1 / ref=4 / deblock=1:-2:-2 / analyse=0x3:0x113 / me=umh / subme=10 / psy=1 / psy_rd=1.00:0.15 / mixed_ref=1 / me_range=32 / chroma_me=1 / trellis=2 / 8x8dct=1 / cqm=0 / deadzone=21,11 / fast_pskip=0 / chroma_qp_offset=-3 / threads=6 / lookahead_threads=1 / sliced_threads=0 / nr=0 / decimate=1 / interlaced=0 / bluray_compat=0 / constrained_intra=0 / bframes=8 / b_pyramid=2 / b_adapt=2 / b_bias=0 / direct=3 / weightb=1 / open_gop=0 / weightp=2 / keyint=240 / keyint_min=23 / scenecut=40 / intra_refresh=0 / rc_lookahead=60 / rc=crf / mbtree=1 / crf=16.0 / qcomp=0.60 / qpmin=0 / qpmax=69 / qpstep=4 / vbv_maxrate=48000 / vbv_bufsize=32500 / crf_max=0.0 / nal_hrd=none / ip_ratio=1.40 / aq=1:1.00
Language                                 : English
Default                                  : Yes
Forced                                   : No

Audio
ID                                       : 2
Format                                   : DTS
Format/Info                              : Digital Theater Systems
Mode                                     : 16
Format settings, Endianness              : Big
Codec ID                                 : A_DTS
Duration                                 : 1h 47mn
Bit rate mode                            : Constant
Bit rate                                 : 1 509 Kbps
Channel(s)                               : 6 channels
Channel positions                        : Front: L C R, Side: L R, LFE
Sampling rate                            : 48.0 KHz
Bit depth                                : 16 bits
Compression mode                         : Lossy
Stream size                              : 1.13 GiB (14%)
Language                                 : English
Default                                  : Yes
Forced                                   : No

Text #1
ID                                       : 3
Format                                   : PGS
Muxing mode                              : zlib
Codec ID                                 : S_HDMV/PGS
Codec ID/Info                            : Picture based subtitle format used on BDs/HD-DVDs
Language                                 : English
Default                                  : No
Forced                                   : No

Text #2
ID                                       : 4
Format                                   : PGS
Muxing mode                              : zlib
Codec ID                                 : S_HDMV/PGS
Codec ID/Info                            : Picture based subtitle format used on BDs/HD-DVDs
Language                                 : English
Default                                  : No
Forced                                   : No

Text #3
ID                                       : 5
Format                                   : PGS
Muxing mode                              : zlib
Codec ID                                 : S_HDMV/PGS
Codec ID/Info                            : Picture based subtitle format used on BDs/HD-DVDs
Language                                 : French
Default                                  : No
Forced                                   : No

Text #4
ID                                       : 6
Format                                   : PGS
Muxing mode                              : zlib
Codec ID                                 : S_HDMV/PGS
Codec ID/Info                            : Picture based subtitle format used on BDs/HD-DVDs
Language                                 : Italian
Default                                  : No
Forced                                   : No

Text #5
ID                                       : 7
Format                                   : PGS
Muxing mode                              : zlib
Codec ID                                 : S_HDMV/PGS
Codec ID/Info                            : Picture based subtitle format used on BDs/HD-DVDs
Language                                 : Polish
Default                                  : No
Forced                                   : No

Text #6
ID                                       : 8
Format                                   : PGS
Muxing mode                              : zlib
Codec ID                                 : S_HDMV/PGS
Codec ID/Info                            : Picture based subtitle format used on BDs/HD-DVDs
Language                                 : Arabic
Default                                  : No
Forced                                   : No

Text #7
ID                                       : 9
Format                                   : PGS
Muxing mode                              : zlib
Codec ID                                 : S_HDMV/PGS
Codec ID/Info                            : Picture based subtitle format used on BDs/HD-DVDs
Language                                 : French
Default                                  : No
Forced                                   : No

Text #8
ID                                       : 10
Format                                   : PGS
Muxing mode                              : zlib
Codec ID                                 : S_HDMV/PGS
Codec ID/Info                            : Picture based subtitle format used on BDs/HD-DVDs
Language                                 : Italian
Default                                  : No
Forced                                   : No

Menu
00:00:00.000                             : en:00:00:00.000
00:02:51.171                             : en:00:02:51.171
00:12:23.076                             : en:00:12:23.076
00:17:15.701                             : en:00:17:15.701
00:20:18.300                             : en:00:20:18.300
00:26:15.407                             : en:00:26:15.407
00:32:20.230                             : en:00:32:20.230
00:34:28.692                             : en:00:34:28.692
00:41:27.777                             : en:00:41:27.777
00:46:20.444                             : en:00:46:20.444
00:54:05.284                             : en:00:54:05.284
01:00:41.596                             : en:01:00:41.596
01:07:41.057                             : en:01:07:41.057
01:09:06.976                             : en:01:09:06.976
01:15:46.459                             : en:01:15:46.459
01:27:06.221                             : en:01:27:06.221
01:31:06.044                             : en:01:31:06.044
01:36:15.812                             : en:01:36:15.812
01:42:17.131                             : en:01:42:17.131


悠悠MP4_MP4电影下载_第六感/灵异第六感 The.Sixth.Sense.1999.1080p.BluRay.x264.DTS-FGT 8.11GB悠悠MP4_MP4电影下载_第六感/灵异第六感 The.Sixth.Sense.1999.1080p.BluRay.x264.DTS-FGT 8.11GB悠悠MP4_MP4电影下载_第六感/灵异第六感 The.Sixth.Sense.1999.1080p.BluRay.x264.DTS-FGT 8.11GB悠悠MP4_MP4电影下载_第六感/灵异第六感 The.Sixth.Sense.1999.1080p.BluRay.x264.DTS-FGT 8.11GB悠悠MP4_MP4电影下载_第六感/灵异第六感 The.Sixth.Sense.1999.1080p.BluRay.x264.DTS-FGT 8.11GB悠悠MP4_MP4电影下载_第六感/灵异第六感 The.Sixth.Sense.1999.1080p.BluRay.x264.DTS-FGT 8.11GB


提示:如迅雷下载提示"任务出错"、"因版权无法下载",请尝试【迅雷5】
上传的附件:
最新回复 (0)
返回
本站所有资源均收集自互联网,没有提供影片资源存储, 也未参与录制、上传,若本站收录的资源无意侵犯了您的权益, 请联系邮箱:gogoimgs#gmail.com(#=@)