[更早] [欧美] [喜剧] [BD-1080P] 斗气老顽童2/欢喜老冤家2 Grumpier.Old.Men.1995.1080p.BluRay.x264.DTS-FGT 6.48GB

uump4 7天前 101

悠悠MP4_MP4电影下载_斗气老顽童2/欢喜老冤家2 Grumpier.Old.Men.1995.1080p.BluRay.x264.DTS-FGT 6.48GB

◎译  名 斗气老顽童2 / 欢喜老冤家2 / 脾气更坏的老者 / 见色忘友2(台)
◎片  名 Grumpier Old Men
◎年  代 1995
◎产  地 美国
◎类  别 喜剧 / 爱情
◎语  言 英语
◎上映日期 1995-12-22(美国)
◎IMDb评分  6.7/10 from 23533 users
◎IMDb链接  https://www.imdb.com/title/tt0113228
◎豆瓣评分 7.1/10 from 137 users
◎豆瓣链接 https://movie.douban.com/subject/1292905/
◎片  长 101分钟
◎导  演 霍华德·达奇 Howard Deutch
◎编  剧 马克·斯蒂文·约翰逊 Mark Steven Johnson
◎主  演 沃尔特·马修 Walter Matthau
       杰克·莱蒙 Jack Lemmon
       安·玛格丽特 Ann-Margret
       索菲娅·罗兰 Sophia Loren


◎标  签 喜剧 | 美国 | 美国电影 | 1995 | 爱情 | JackLemmon | WalterMatthau | 1990s

◎简  介  

  故事梗概:
  性格倔强但本性善良的马科斯和邻居乔争吵了几十年,尽管两个人经常讴气,甚至吵架到翻脸,却始终乐此不疲。哪怕他们的子女即将结合,两个老人就要成为亲家,每日却依然在争吵斗气中度过。
  看着乔和妻子埃丽尔整日亲亲我我,孤身一人的马科斯心中不免失落,什么时候才能够像乔一样再次拥有爱情呢?很快,机会来了。在小镇经营了几十年的鱼饵店关张了,接手的是一对意大利母女,她们将这家靠着河边的小店改成了餐厅。这下可激怒了马科斯和乔,要知道如果餐厅开张,就意味着再也买不到合适的钓鱼工具和诱饵,而且大批来餐厅用餐的客人亦会扰乱小河的宁静,乔和马科斯挚爱的钓鱼活动将被迫停止。
  马科斯和乔开始合作给餐厅的女主人玛利亚找麻烦,这让玛利亚非常恼火。尽管她想出了各种各样的方法,甚至收买这两个老头,却始终无功而返。伤心的玛利亚向乔的妻子埃丽尔诉苦,埃丽尔强迫乔对自己的行为向玛利亚道歉。
  意大利的烈酒让不胜酒力的乔醉倒在玛利亚的餐馆,被第二天一早因乔彻夜不归而来寻找的埃丽尔和马科斯碰到。两人确信乔和玛利亚之间存在不正当关系,正当大家为此吵得不可开交之时,玛利亚的母亲一语道破天惊:玛利亚心中喜欢的是马科斯!
  惊喜的马科斯开始频繁与玛利亚约会,但5次失败的婚姻让玛利亚不敢再轻易相信爱情。最后一次的约会玛利亚失约了,备受打击的马科斯又恢复了以往孤独的生活。
  由于马科斯和乔总是在“战斗”,搞得家人鸡犬不宁。埃丽尔离开乔回到了娘家,儿女们也因为对两个老头安排的婚礼不满而产生隔阂。然而乔九十多岁的父亲的去世让大家重新审视身边的人和事,在有生之年应该享受和珍惜生活带来的一切。儿女们重归于好,埃丽尔也回到了乔的身边。
  乔鼓励马科斯勇敢追求自己心爱的人,马科斯不顾一切地找到玛利亚,开导安慰玛利亚的同时向她求婚。面对这样一个疼爱自己的男人,玛利亚又怎能拒绝呢!
  玛利亚和马科斯的婚礼马上就要举行了,但马科斯和乔这两个老小孩却不知去向。原来他们无法抑制诱惑又来到河边钓那条他们一直在寻找的大肥鱼。幸好在婚礼开始前及时赶到了教堂,马科斯的新生活就此拉开序幕。
  精彩视点:
  本片是1993年版的《欢喜老冤家》的第二部,又被译为《脾气更坏的老者》。依然由好莱坞著名笑匠杰克·莱蒙和沃尔特·马修联合主演。杰克·莱蒙早在出道之初的1955年,便凭借《罗伯茨先生》一片荣获奥斯卡最佳男配角奖,并从此奠定了他日后往喜剧演艺路线发展的基础。此后杰克与杰出的喜剧导演比利·怀德合作了《热情如火》、《公寓》、《花街女神》等一批经典喜剧电影。1966年杰克和本片的另一位主演——冷面笑匠沃尔特·马修首次搭档演出了比利导演的《扭计师爷》,沃尔特凭借出色的演技勇夺当年奥斯卡最佳男主角奖。从那以后,杰克和沃尔特结成了莫逆之交,两人以最佳拍档的架势纵横好莱坞三十余年,成为影坛传奇。他俩合作的喜剧除本片外还有《头版》、《海之外》等。
  温馨的场景、令人忍俊不禁的恶作剧、滑稽可笑的表情动作加上两位奥斯卡影帝的出色表演,为这部影片延续了第一部的喜剧效果,更增添了不少吸引观众的亮点。
  2007-4月6日 22:21 CCTV-6播出

Video
ID                                       : 1
Format                                   : AVC
Format/Info                              : Advanced Video Codec
Format profile                           : [email protected]
Format settings                          : CABAC / 3 Ref Frames
Format settings, CABAC                   : Yes
Format settings, Reference frames        : 3 frames
Codec ID                                 : V_MPEG4/ISO/AVC
Duration                                 : 1 h 41 min
Bit rate mode                            : Variable
Bit rate                                 : 7 683 kb/s
Maximum bit rate                         : 40.0 Mb/s
Width                                    : 1 904 pixels
Height                                   : 1 072 pixels
Display aspect ratio                     : 16:9
Frame rate mode                          : Constant
Frame rate                               : 23.976 (24000/1001/189150) FPS
Color space                              : YUV
Chroma subsampling                       : 4:2:0
Bit depth                                : 8 bits
Scan type                                : Progressive
Bits/(Pixel*Frame)                       : 0.157
Stream size                              : 5.29 GiB (82%)
Writing library                          : x264 core 133 r2334 a3ac64b
Encoding settings                        : cabac=1 / ref=3 / deblock=1:-1:-1 / analyse=0x3:0x113 / me=umh / subme=6 / psy=1 / psy_rd=1.00:0.15 / mixed_ref=1 / me_range=20 / chroma_me=1 / trellis=2 / 8x8dct=1 / cqm=0 / deadzone=21,11 / fast_pskip=1 / chroma_qp_offset=-3 / threads=12 / lookahead_threads=2 / sliced_threads=0 / slices=4 / nr=0 / decimate=1 / interlaced=0 / bluray_compat=1 / constrained_intra=0 / bframes=3 / b_pyramid=1 / b_adapt=2 / b_bias=0 / direct=3 / weightb=1 / open_gop=1 / weightp=1 / keyint=24 / keyint_min=1 / scenecut=40 / intra_refresh=0 / rc_lookahead=24 / rc=2pass / mbtree=1 / bitrate=7683 / ratetol=1.0 / qcomp=0.60 / qpmin=10 / qpmax=51 / qpstep=4 / cplxblur=20.0 / qblur=0.5 / vbv_maxrate=40000 / vbv_bufsize=30000 / nal_hrd=vbr / ip_ratio=1.40 / aq=1:1.00
Language                                 : English
Default                                  : Yes
Forced                                   : No

Audio
ID                                       : 2
Format                                   : DTS
Format/Info                              : Digital Theater Systems
Codec ID                                 : A_DTS
Duration                                 : 1 h 41 min
Bit rate mode                            : Constant
Bit rate                                 : 1 509 kb/s
Channel(s)                               : 6 channels
Channel layout                           : C L R Ls Rs LFE
Sampling rate                            : 48.0 kHz
Frame rate                               : 93.750 FPS (512 SPF)
Bit depth                                : 24 bits
Compression mode                         : Lossy
Stream size                              : 1.06 GiB (16%)
Language                                 : English
Default                                  : Yes
Forced                                   : No

Text
ID                                       : 3
Format                                   : UTF-8
Codec ID                                 : S_TEXT/UTF8
Codec ID/Info                            : UTF-8 Plain Text
Title                                    : SDH
Language                                 : English
Default                                  : Yes
Forced                                   : No

Menu
00:00:00.000                             : en:00:00:00.000
00:07:35.830                             : en:00:07:35.830
00:09:48.880                             : en:00:09:48.880
00:13:50.329                             : en:00:13:50.329
00:18:08.671                             : en:00:18:08.671
00:20:48.581                             : en:00:20:48.581
00:21:57.483                             : en:00:21:57.483
00:24:17.539                             : en:00:24:17.539
00:29:19.424                             : en:00:29:19.424
00:31:44.486                             : en:00:31:44.486
00:34:52.674                             : en:00:34:52.674
00:39:44.424                             : en:00:39:44.424
00:46:01.258                             : en:00:46:01.258
00:46:48.597                             : en:00:46:48.597
00:49:58.162                             : en:00:49:58.162
00:53:05.682                             : en:00:53:05.682
00:57:10.427                             : en:00:57:10.427
00:58:24.793                             : en:00:58:24.793
01:02:04.679                             : en:01:02:04.679
01:03:33.518                             : en:01:03:33.518
01:05:08.071                             : en:01:05:08.071
01:09:00.428                             : en:01:09:00.428
01:12:45.820                             : en:01:12:45.820
01:16:23.788                             : en:01:16:23.788
01:20:34.288                             : en:01:20:34.288
01:23:31.632                             : en:01:23:31.632
01:28:59.751                             : en:01:28:59.751
01:30:13.366                             : en:01:30:13.366
01:33:12.629                             : en:01:33:12.629
01:34:43.761                             : en:01:34:43.761
01:37:12.910                             : en:01:37:12.910


悠悠MP4_MP4电影下载_斗气老顽童2/欢喜老冤家2 Grumpier.Old.Men.1995.1080p.BluRay.x264.DTS-FGT 6.48GB悠悠MP4_MP4电影下载_斗气老顽童2/欢喜老冤家2 Grumpier.Old.Men.1995.1080p.BluRay.x264.DTS-FGT 6.48GB悠悠MP4_MP4电影下载_斗气老顽童2/欢喜老冤家2 Grumpier.Old.Men.1995.1080p.BluRay.x264.DTS-FGT 6.48GB悠悠MP4_MP4电影下载_斗气老顽童2/欢喜老冤家2 Grumpier.Old.Men.1995.1080p.BluRay.x264.DTS-FGT 6.48GB悠悠MP4_MP4电影下载_斗气老顽童2/欢喜老冤家2 Grumpier.Old.Men.1995.1080p.BluRay.x264.DTS-FGT 6.48GB悠悠MP4_MP4电影下载_斗气老顽童2/欢喜老冤家2 Grumpier.Old.Men.1995.1080p.BluRay.x264.DTS-FGT 6.48GB


提示:如迅雷下载提示"任务出错"、"因版权无法下载",请尝试【迅雷5】
上传的附件:
最新回复 (0)
返回
本站所有资源均收集自互联网,没有提供影片资源存储, 也未参与录制、上传,若本站收录的资源无意侵犯了您的权益, 请联系邮箱:gogoimgs#gmail.com(#=@)