[2010] [欧美] [其他] [WEB-1080P] 客厅的大象 The.Elephant.in.the.Living.Room.2010.1080p.AMZN.WEBRip.DDP2.0.x264-KAIZEN

uump4 3天前 102

帖子完整标题:客厅的大象 The.Elephant.in.the.Living.Room.2010.1080p.AMZN.WEBRip.DDP2.0.x264-KAIZEN 7.42GB


悠悠MP4_MP4电影下载_客厅的大象 The.Elephant.in.the.Living.Room.2010.1080p.AMZN.WEBRip.DDP2.0.x264-KAIZEN

◎译  名 客厅的大象
◎片  名 The Elephant in the Living Room
◎年  代 2010
◎产  地 美国
◎类  别 纪录片
◎语  言 英语
◎IMDb评分  7.3/10 from 980 users
◎IMDb链接  https://www.imdb.com/title/tt1111313
◎豆瓣评分 0/10 from 0 users
◎豆瓣链接 https://movie.douban.com/subject/3804831/
◎片  长 96分钟
◎导  演 Michael Webber
◎主  演 Tim Harrison


◎标  签 纪录片 | 紀錄 | documentary | Michael_Webber | 美國 | 美国 | 环保 | 動物

◎简  介  

  Take a journey deep inside the fascinating world where wild exotic animals are kept as household pets.

Video
ID                                       : 1
Format                                   : AVC
Format/Info                              : Advanced Video Codec
Format profile                           : [email protected]
Format settings                          : CABAC / 4 Ref Frames
Format settings, CABAC                   : Yes
Format settings, Reference frames        : 4 frames
Codec ID                                 : V_MPEG4/ISO/AVC
Duration                                 : 1 h 36 min
Bit rate                                 : 10.8 Mb/s
Width                                    : 1 920 pixels
Height                                   : 1 080 pixels
Display aspect ratio                     : 16:9
Frame rate mode                          : Constant
Frame rate                               : 23.976 (24000/1001/189150) FPS
Color space                              : YUV
Chroma subsampling                       : 4:2:0
Bit depth                                : 8 bits
Scan type                                : Progressive
Bits/(Pixel*Frame)                       : 0.217
Stream size                              : 7.27 GiB (98%)
Default                                  : Yes
Forced                                   : No
Color range                              : Limited
Color primaries                          : BT.709
Transfer characteristics                 : BT.709
Matrix coefficients                      : BT.709

Audio
ID                                       : 2
Format                                   : E-AC-3
Format/Info                              : Enhanced AC-3
Commercial name                          : Dolby Digital Plus
Codec ID                                 : A_EAC3
Duration                                 : 1 h 36 min
Bit rate mode                            : Constant
Bit rate                                 : 224 kb/s
Channel(s)                               : 2 channels
Channel layout                           : L R
Sampling rate                            : 48.0 kHz
Frame rate                               : 31.250 FPS (1536 SPF)
Compression mode                         : Lossy
Stream size                              : 154 MiB (2%)
Language                                 : English
Service kind                             : Complete Main
Default                                  : Yes
Forced                                   : No

Text
ID                                       : 3
Format                                   : UTF-8
Codec ID                                 : S_TEXT/UTF8
Codec ID/Info                            : UTF-8 Plain Text
Duration                                 : 1 h 35 min
Bit rate                                 : 80 b/s
Count of elements                        : 1619
Stream size                              : 56.3 KiB (0%)
Title                                    : English [CC](SDH)
Language                                 : English
Default                                  : Yes
Forced                                   : No


悠悠MP4_MP4电影下载_客厅的大象 The.Elephant.in.the.Living.Room.2010.1080p.AMZN.WEBRip.DDP2.0.x264-KAIZEN悠悠MP4_MP4电影下载_客厅的大象 The.Elephant.in.the.Living.Room.2010.1080p.AMZN.WEBRip.DDP2.0.x264-KAIZEN悠悠MP4_MP4电影下载_客厅的大象 The.Elephant.in.the.Living.Room.2010.1080p.AMZN.WEBRip.DDP2.0.x264-KAIZEN


提示:如迅雷下载提示"任务出错"、"因版权无法下载",请尝试【迅雷5】
上传的附件:
最新回复 (0)
返回
本站所有资源均收集自互联网,没有提供影片资源存储, 也未参与录制、上传,若本站收录的资源无意侵犯了您的权益, 请联系邮箱:gogoimgs#gmail.com(#=@)