[更早] [其他] [剧情] [WEB-1080P] 星期天的女人 The.Sunday.Woman.1975.ITALIAN.1080p.AMZN.WEBRip.DDP2.0.x264-SbR 9.68GB

uump4 3天前 100

帖子完整标题:星期天的女人 The.Sunday.Woman.1975.ITALIAN.1080p.AMZN.WEBRip.DDP2.0.x264-SbR 9.68GB


悠悠MP4_MP4电影下载_星期天的女人 The.Sunday.Woman.1975.ITALIAN.1080p.AMZN.WEBRip.DDP2.0.x264-SbR 9.68GB

◎译  名 星期天的女人 / The Sunday Woman
◎片  名 La donna della domenica
◎年  代 1975
◎产  地 意大利 / 法国
◎类  别 剧情 / 喜剧 / 犯罪
◎语  言 意大利语
◎上映日期 1975-12-23
◎IMDb评分  6.7/10 from 691 users
◎IMDb链接  https://www.imdb.com/title/tt0074423
◎豆瓣评分 0/10 from 0 users
◎豆瓣链接 https://movie.douban.com/subject/2135801/
◎片  长 105 分钟
◎导  演 Luigi Comencini
◎编  剧 Agenore Incrocci
◎主  演 Marcello Mastroianni
       Jacqueline Bisset
       Jean-Louis Trintignant


◎标  签 意大利 | MarcelloMastroianni | 意大利电影 | ost | giallo | 马斯楚安尼 | 美国电影 | 欧片

◎简  介  

  Police commissioner Santamaria is investigating the murdering of the ambiguous architect Mr. Garrone. The investigations soon drive him into the Torino's high society. Santamaria suspect Anna Carla and at the same time falls in love for her. Lello is the lover of Massimo, a homosexual platonic friend of Anna Carla. He is following another direction in order to find out the truth, and his results are confusing the Policeman. But another murdering happens...

Video
ID                                       : 1
Format                                   : AVC
Format/Info                              : Advanced Video Codec
Format profile                           : [email protected]
Format settings                          : CABAC / 4 Ref Frames
Format settings, CABAC                   : Yes
Format settings, Reference frames        : 4 frames
Codec ID                                 : V_MPEG4/ISO/AVC
Duration                                 : 1 h 49 min
Bit rate                                 : 12.5 Mb/s
Width                                    : 1 440 pixels
Height                                   : 1 080 pixels
Display aspect ratio                     : 4:3
Frame rate mode                          : Constant
Frame rate                               : 24.000 FPS
Color space                              : YUV
Chroma subsampling                       : 4:2:0
Bit depth                                : 8 bits
Scan type                                : Progressive
Bits/(Pixel*Frame)                       : 0.334
Stream size                              : 9.50 GiB (98%)
Default                                  : Yes
Forced                                   : No
Color range                              : Limited
Color primaries                          : BT.709
Transfer characteristics                 : BT.709
Matrix coefficients                      : BT.709

Audio
ID                                       : 2
Format                                   : E-AC-3
Format/Info                              : Enhanced AC-3
Commercial name                          : Dolby Digital Plus
Codec ID                                 : A_EAC3
Duration                                 : 1 h 49 min
Bit rate mode                            : Constant
Bit rate                                 : 224 kb/s
Channel(s)                               : 2 channels
Channel layout                           : L R
Sampling rate                            : 48.0 kHz
Frame rate                               : 31.250 FPS (1536 SPF)
Compression mode                         : Lossy
Stream size                              : 175 MiB (2%)
Language                                 : Italian
Service kind                             : Complete Main
Default                                  : Yes
Forced                                   : No

Text
ID                                       : 3
Format                                   : UTF-8
Codec ID                                 : S_TEXT/UTF8
Codec ID/Info                            : UTF-8 Plain Text
Duration                                 : 1 h 47 min
Bit rate                                 : 66 b/s
Count of elements                        : 1368
Stream size                              : 52.1 KiB (0%)
Title                                    : SDH
Language                                 : English
Default                                  : No
Forced                                   : No


悠悠MP4_MP4电影下载_星期天的女人 The.Sunday.Woman.1975.ITALIAN.1080p.AMZN.WEBRip.DDP2.0.x264-SbR 9.68GB悠悠MP4_MP4电影下载_星期天的女人 The.Sunday.Woman.1975.ITALIAN.1080p.AMZN.WEBRip.DDP2.0.x264-SbR 9.68GB悠悠MP4_MP4电影下载_星期天的女人 The.Sunday.Woman.1975.ITALIAN.1080p.AMZN.WEBRip.DDP2.0.x264-SbR 9.68GB


提示:如迅雷下载提示"任务出错"、"因版权无法下载",请尝试【迅雷5】
上传的附件:
最新回复 (0)
返回
本站所有资源均收集自互联网,没有提供影片资源存储, 也未参与录制、上传,若本站收录的资源无意侵犯了您的权益, 请联系邮箱:gogoimgs#gmail.com(#=@)