[更早] [欧美] [剧情] [WEB-1080P] 血回廊 Corridors.of.Blood.1958.1080p.AMZN.WEBRip.DDP2.0.x264-TEPES 4.13GB

uump4 4天前 78

帖子完整标题:血回廊 Corridors.of.Blood.1958.1080p.AMZN.WEBRip.DDP2.0.x264-TEPES 4.13GB


悠悠MP4_MP4电影下载_血回廊 Corridors.of.Blood.1958.1080p.AMZN.WEBRip.DDP2.0.x264-TEPES 4.13GB

◎译  名 血回廊 / Doctor from Seven Dials / 血色走廊
◎片  名 Corridors of Blood
◎年  代 1958
◎产  地 英国
◎类  别 剧情 / 惊悚 / 恐怖 / 犯罪
◎语  言 英语
◎上映日期 1958-12-01
◎IMDb评分  6.5/10 from 1655 users
◎IMDb链接  https://www.imdb.com/title/tt0051542
◎豆瓣评分 6.1/10 from 101 users
◎豆瓣链接 https://movie.douban.com/subject/1904183/
◎片  长 86 分钟
◎导  演 Robert Day
◎编  剧 Jean Scott Rogers
◎主  演 Boris Karloff
       Betta St. John
       Christopher Lee
       Finlay Currie


◎标  签 英国 | CC | 惊悚 | 1958 | 英国电影 | cult | RobertDay | CC版

◎简  介  

  为了解决外科手术带来的痛苦,十九世纪四十年代伦敦的Thomas Bolton医生致力研究一种基于鸦片的麻醉药,不久他因此染上了毒瘾。为了使实验能够进行下去同时满足毒瘾,他不得不面对利用他签名出售尸体的谋杀犯。

Video
ID                                       : 1
Format                                   : AVC
Format/Info                              : Advanced Video Codec
Format profile                           : [email protected]
Format settings                          : CABAC / 4 Ref Frames
Format settings, CABAC                   : Yes
Format settings, Reference frames        : 4 frames
Codec ID                                 : V_MPEG4/ISO/AVC
Duration                                 : 1 h 26 min
Bit rate mode                            : Variable
Bit rate                                 : 6 567 kb/s
Maximum bit rate                         : 15.0 Mb/s
Width                                    : 1 920 pixels
Height                                   : 1 080 pixels
Display aspect ratio                     : 16:9
Frame rate mode                          : Constant
Frame rate                               : 23.976 (24000/1001/189150) FPS
Color space                              : YUV
Chroma subsampling                       : 4:2:0
Bit depth                                : 8 bits
Scan type                                : Progressive
Bits/(Pixel*Frame)                       : 0.132
Stream size                              : 3.99 GiB (97%)
Writing library                          : x264 core 148 r2623 d5b2374
Encoding settings                        : cabac=1 / ref=4 / deblock=1:-1:-1 / analyse=0x3:0x133 / me=umh / subme=9 / psy=1 / psy_rd=1.00:0.15 / mixed_ref=1 / me_range=24 / chroma_me=1 / trellis=2 / 8x8dct=1 / cqm=0 / deadzone=21,11 / fast_pskip=1 / chroma_qp_offset=-3 / threads=34 / lookahead_threads=5 / sliced_threads=0 / nr=150 / decimate=1 / interlaced=0 / bluray_compat=0 / constrained_intra=0 / bframes=8 / b_pyramid=2 / b_adapt=2 / b_bias=0 / direct=3 / weightb=1 / open_gop=0 / weightp=2 / keyint=120 / keyint_min=61 / scenecut=0 / intra_refresh=0 / rc_lookahead=120 / rc=crf / mbtree=1 / crf=18.0 / qcomp=0.60 / qpmin=0 / qpmax=69 / qpstep=4 / vbv_maxrate=15000 / vbv_bufsize=31250 / crf_max=0.0 / nal_hrd=vbr / filler=0 / ip_ratio=1.40 / aq=3:1.00
Default                                  : Yes
Forced                                   : No
Color range                              : Limited
Color primaries                          : BT.709
Transfer characteristics                 : BT.709
Matrix coefficients                      : BT.709

Audio
ID                                       : 2
Format                                   : E-AC-3
Format/Info                              : Enhanced AC-3
Commercial name                          : Dolby Digital Plus
Codec ID                                 : A_EAC3
Duration                                 : 1 h 26 min
Bit rate mode                            : Constant
Bit rate                                 : 224 kb/s
Channel(s)                               : 2 channels
Channel layout                           : L R
Sampling rate                            : 48.0 kHz
Frame rate                               : 31.250 FPS (1536 SPF)
Compression mode                         : Lossy
Stream size                              : 139 MiB (3%)
Language                                 : English
Service kind                             : Complete Main
Default                                  : Yes
Forced                                   : No

Text #1
ID                                       : 3
Format                                   : UTF-8
Codec ID                                 : S_TEXT/UTF8
Codec ID/Info                            : UTF-8 Plain Text
Duration                                 : 1 h 23 min
Bit rate                                 : 52 b/s
Count of elements                        : 831
Stream size                              : 32.2 KiB (0%)
Language                                 : English
Default                                  : No
Forced                                   : No

Text #2
ID                                       : 4
Format                                   : UTF-8
Codec ID                                 : S_TEXT/UTF8
Codec ID/Info                            : UTF-8 Plain Text
Duration                                 : 1 h 23 min
Bit rate                                 : 60 b/s
Count of elements                        : 975
Stream size                              : 37.0 KiB (0%)
Language                                 : English
Default                                  : No
Forced                                   : No


悠悠MP4_MP4电影下载_血回廊 Corridors.of.Blood.1958.1080p.AMZN.WEBRip.DDP2.0.x264-TEPES 4.13GB悠悠MP4_MP4电影下载_血回廊 Corridors.of.Blood.1958.1080p.AMZN.WEBRip.DDP2.0.x264-TEPES 4.13GB悠悠MP4_MP4电影下载_血回廊 Corridors.of.Blood.1958.1080p.AMZN.WEBRip.DDP2.0.x264-TEPES 4.13GB


提示:如迅雷下载提示"任务出错"、"因版权无法下载",请尝试【迅雷5】
上传的附件:
最新回复 (0)
返回
本站所有资源均收集自互联网,没有提供影片资源存储, 也未参与录制、上传,若本站收录的资源无意侵犯了您的权益, 请联系邮箱:gogoimgs#gmail.com(#=@)