[更早] [欧美] [剧情] [BD-1080P] 舞吧女孩/跳吧女孩子 Dance.Girl.Dance.1940.1080p.BluRay.x264.DTS-FGT 8.16GB

uump4 4天前 80

帖子完整标题:舞吧女孩/跳吧女孩子 Dance.Girl.Dance.1940.1080p.BluRay.x264.DTS-FGT 8.16GB


悠悠MP4_MP4电影下载_舞吧女孩/跳吧女孩子 Dance.Girl.Dance.1940.1080p.BluRay.x264.DTS-FGT 8.16GB

◎译  名 舞吧,女孩 / 跳吧,女孩子
◎片  名 Dance, Girl, Dance
◎年  代 1940
◎产  地 美国
◎类  别 剧情 / 喜剧
◎语  言 英语
◎上映日期 1940-08-30
◎IMDb评分  6.7/10 from 1847 users
◎IMDb链接  https://www.imdb.com/title/tt0032376
◎豆瓣评分 7.3/10 from 522 users
◎豆瓣链接 https://movie.douban.com/subject/1304153/
◎片  长 90 分钟
◎导  演 多萝西·阿兹娜 Dorothy Arzner
◎编  剧 弗兰克·戴维斯 Frank Davis / 苔丝·施莱辛格 Tess Slesinger / 维基·包姆 Vicki Baum
◎主  演 玛琳·奥哈拉 Maureen O'Hara
       路易斯·海沃德 Louis Hayward
       露西尔·鲍尔 Lucille Ball
       弗吉尼亚·菲尔德 Virginia Field
       拉尔夫·贝拉米 Ralph Bellamy


◎标  签 美国 | Dorothy_Arzner | 1940s | 美国电影 | 女性 | 1940 | 女性导演 | 经典

◎简  介  

  暂无相关剧情介绍

Video
ID                                       : 1
Format                                   : AVC
Format/Info                              : Advanced Video Codec
Format profile                           : [email protected]
Format settings                          : CABAC / 4 Ref Frames
Format settings, CABAC                   : Yes
Format settings, Reference frames        : 4 frames
Codec ID                                 : V_MPEG4/ISO/AVC
Duration                                 : 1 h 29 min
Bit rate                                 : 11.5 Mb/s
Width                                    : 1 480 pixels
Height                                   : 1 080 pixels
Display aspect ratio                     : 1.370
Frame rate mode                          : Constant
Frame rate                               : 23.976 (24000/1001/189150) FPS
Color space                              : YUV
Chroma subsampling                       : 4:2:0
Bit depth                                : 8 bits
Scan type                                : Progressive
Bits/(Pixel*Frame)                       : 0.300
Stream size                              : 7.21 GiB (88%)
Title                                    : Dance.Girl.Dance.1940.1080p.BluRay.x264.DTS-FGT
Writing library                          : x264 core 148 r2795M aaa9aa8
Encoding settings                        : cabac=1 / ref=4 / deblock=1:-2:-2 / analyse=0x3:0x113 / me=umh / subme=9 / psy=1 / psy_rd=1.00:0.15 / mixed_ref=1 / me_range=16 / chroma_me=1 / trellis=2 / 8x8dct=1 / cqm=0 / deadzone=21,11 / fast_pskip=1 / chroma_qp_offset=-3 / threads=48 / lookahead_threads=3 / sliced_threads=0 / nr=0 / decimate=1 / interlaced=0 / bluray_compat=0 / constrained_intra=0 / bframes=3 / b_pyramid=2 / b_adapt=1 / b_bias=0 / direct=3 / weightb=1 / open_gop=0 / weightp=2 / keyint=250 / keyint_min=25 / scenecut=40 / intra_refresh=0 / rc_lookahead=50 / rc=2pass / mbtree=1 / bitrate=11500 / ratetol=1.0 / qcomp=0.60 / qpmin=0 / qpmax=69 / qpstep=4 / cplxblur=20.0 / qblur=0.5 / vbv_maxrate=31250 / vbv_bufsize=31250 / nal_hrd=none / filler=0 / ip_ratio=1.40 / aq=1:1.00
Language                                 : English
Default                                  : Yes
Forced                                   : No

Audio
ID                                       : 2
Format                                   : DTS
Format/Info                              : Digital Theater Systems
Codec ID                                 : A_DTS
Duration                                 : 1 h 29 min
Bit rate mode                            : Constant
Bit rate                                 : 1 509 kb/s
Channel(s)                               : 1 channel
Channel layout                           : C
Sampling rate                            : 48.0 kHz
Frame rate                               : 93.750 FPS (512 SPF)
Bit depth                                : 16 bits
Compression mode                         : Lossy
Stream size                              : 969 MiB (12%)
Title                                    : Dance.Girl.Dance.1940.1080p.BluRay.x264.DTS-FGT
Language                                 : English
Default                                  : Yes
Forced                                   : No

Text
ID                                       : 3
Format                                   : UTF-8
Codec ID                                 : S_TEXT/UTF8
Codec ID/Info                            : UTF-8 Plain Text
Duration                                 : 1 h 26 min
Bit rate                                 : 62 b/s
Count of elements                        : 1084
Stream size                              : 39.4 KiB (0%)
Language                                 : English
Default                                  : Yes
Forced                                   : No

Menu
00:00:00.000                             : en:Chapter 01
00:10:30.839                             : en:Chapter 02
00:13:55.209                             : en:Chapter 03
00:21:41.509                             : en:Chapter 04
00:34:23.520                             : en:Chapter 05
00:40:54.494                             : en:Chapter 06
00:51:52.818                             : en:Chapter 07
01:01:53.293                             : en:Chapter 08
01:10:20.007                             : en:Chapter 09
01:20:03.257                             : en:Chapter 10
01:26:40.404                             : en:Chapter 11


悠悠MP4_MP4电影下载_舞吧女孩/跳吧女孩子 Dance.Girl.Dance.1940.1080p.BluRay.x264.DTS-FGT 8.16GB悠悠MP4_MP4电影下载_舞吧女孩/跳吧女孩子 Dance.Girl.Dance.1940.1080p.BluRay.x264.DTS-FGT 8.16GB悠悠MP4_MP4电影下载_舞吧女孩/跳吧女孩子 Dance.Girl.Dance.1940.1080p.BluRay.x264.DTS-FGT 8.16GB


提示:如迅雷下载提示"任务出错"、"因版权无法下载",请尝试【迅雷5】
上传的附件:
最新回复 (0)
返回
本站所有资源均收集自互联网,没有提供影片资源存储, 也未参与录制、上传,若本站收录的资源无意侵犯了您的权益, 请联系邮箱:gogoimgs#gmail.com(#=@)