[更早] [其他] [剧情] [BD-1080P] 在我父亲的洞穴里 In.My.Fathers.Den.2004.1080p.BluRay.x264.DTS-FGT 10.90GB

uump4 4天前 90

帖子完整标题:在我父亲的洞穴里 In.My.Fathers.Den.2004.1080p.BluRay.x264.DTS-FGT 10.90GB


悠悠MP4_MP4电影下载_在我父亲的洞穴里 In.My.Fathers.Den.2004.1080p.BluRay.x264.DTS-FGT 10.90GB

◎译  名 在我父亲的洞穴里 / Um Refúgio no Passado
◎片  名 In My Father's Den
◎年  代 2004
◎产  地 新西兰 / 英国
◎类  别 剧情 / 悬疑 / 惊悚
◎语  言 英语
◎上映日期 2004-10-07(新西兰)
◎IMDb评分  7.5/10 from 7189 users
◎IMDb链接  https://www.imdb.com/title/tt0385017
◎豆瓣评分 7.7/10 from 1787 users
◎豆瓣链接 https://movie.douban.com/subject/1309127/
◎片  长 127分钟
◎导  演 布拉德·迈克吉恩 Brad McGann
◎编  剧 布拉德·迈克吉恩 Brad McGann / Maurice Gee
◎主  演 马修·麦克费登 Matthew Macfadyen
       艾米丽·巴克雷 Emily Barclay
       米兰达·奥图 Miranda Otto
       Colin Moy
       Jimmy Keen
       Jodie Rimmer


◎标  签 新西兰 | 悬疑 | 剧情 | MatthewMacFadyen | 英国 | 家庭 | 新西兰电影 | 成长

◎简  介  

  这是鲍尔(马修·麦克费登 Matthew Macfadyen 饰)这十几年来第一次踏上故乡的土地,他来这里不为了别的,只为了参加父亲的葬礼。作为鲍尔的兄长,安德鲁(科林·莫伊 Colin Moy 饰)对于兄弟的来访却并不高兴,时间使人们变得陌生,迥异的个性又为他们制造了矛盾。在安德鲁的强烈要求下,鲍尔来到了父亲曾经呆过的小屋,清算父亲留下的遗产,没想到,在小屋里,鲍尔遇见了一位名叫西莉亚(艾米丽·巴克雷 Emily Barclay 饰)的少女。
  受朋友所托,鲍尔担任了写作课的代课老师,在班上,他再一次的看到了西莉亚的身影。令鲍尔吃惊的是,西莉亚竟然是他和前女友的爱情结晶而他对此一无所知。在血缘的影响下,鲍尔对西莉亚格外的照顾和关心,不遗余力的支持着她追求自己的梦想,这样的状态一直持续到了西莉亚突然失踪的那一天,同时,一个不为人知的秘密就此揭开。

◎获奖情况  

  第8届上海国际电影节(2005)
  金爵奖 最佳影片(提名) 布拉德·迈克吉恩
  金爵奖 最佳摄影 斯图尔特·瑞伯

Video
ID                                       : 1
Format                                   : AVC
Format/Info                              : Advanced Video Codec
Format profile                           : [email protected]
Format settings                          : CABAC / 4 Ref Frames
Format settings, CABAC                   : Yes
Format settings, Reference frames        : 4 frames
Codec ID                                 : V_MPEG4/ISO/AVC
Duration                                 : 2 h 7 min
Bit rate                                 : 11.5 Mb/s
Width                                    : 1 916 pixels
Height                                   : 816 pixels
Display aspect ratio                     : 2.35:1
Frame rate mode                          : Constant
Frame rate                               : 24.000 FPS
Color space                              : YUV
Chroma subsampling                       : 4:2:0
Bit depth                                : 8 bits
Scan type                                : Progressive
Bits/(Pixel*Frame)                       : 0.306
Stream size                              : 10.2 GiB (94%)
Title                                    : In.My.Fathers.Den.2004.1080p.BluRay.x264.DTS-FGT
Writing library                          : x264 core 148 r2795M aaa9aa8
Encoding settings                        : cabac=1 / ref=4 / deblock=1:-2:-2 / analyse=0x3:0x113 / me=umh / subme=9 / psy=1 / psy_rd=1.00:0.15 / mixed_ref=1 / me_range=16 / chroma_me=1 / trellis=2 / 8x8dct=1 / cqm=0 / deadzone=21,11 / fast_pskip=1 / chroma_qp_offset=-3 / threads=24 / lookahead_threads=3 / sliced_threads=0 / nr=0 / decimate=1 / interlaced=0 / bluray_compat=0 / constrained_intra=0 / bframes=3 / b_pyramid=2 / b_adapt=1 / b_bias=0 / direct=3 / weightb=1 / open_gop=0 / weightp=2 / keyint=250 / keyint_min=25 / scenecut=40 / intra_refresh=0 / rc_lookahead=50 / rc=2pass / mbtree=1 / bitrate=11500 / ratetol=1.0 / qcomp=0.60 / qpmin=0 / qpmax=69 / qpstep=4 / cplxblur=20.0 / qblur=0.5 / vbv_maxrate=31250 / vbv_bufsize=31250 / nal_hrd=none / filler=0 / ip_ratio=1.40 / aq=1:1.00
Language                                 : English
Default                                  : Yes
Forced                                   : No

Audio
ID                                       : 2
Format                                   : DTS
Format/Info                              : Digital Theater Systems
Codec ID                                 : A_DTS
Duration                                 : 2 h 7 min
Bit rate mode                            : Constant
Bit rate                                 : 768 kb/s
Channel(s)                               : 6 channels
Channel layout                           : C L R Ls Rs LFE
Sampling rate                            : 48.0 kHz
Frame rate                               : 93.750 FPS (512 SPF)
Bit depth                                : 16 bits
Compression mode                         : Lossy
Stream size                              : 699 MiB (6%)
Title                                    : In.My.Fathers.Den.2004.1080p.BluRay.x264.DTS-FGT
Language                                 : English
Default                                  : Yes
Forced                                   : No

Text
ID                                       : 3
Format                                   : UTF-8
Codec ID                                 : S_TEXT/UTF8
Codec ID/Info                            : UTF-8 Plain Text
Duration                                 : 2 h 1 min
Bit rate                                 : 38 b/s
Count of elements                        : 1123
Stream size                              : 34.5 KiB (0%)
Language                                 : English
Default                                  : Yes
Forced                                   : No

Menu
00:00:00.000                             : en:Chapter 00
00:00:00.500                             : en:Chapter 01
00:02:47.916                             : en:Chapter 02
00:09:32.541                             : en:Chapter 03
00:17:59.541                             : en:Chapter 04
00:26:45.291                             : en:Chapter 05
00:34:44.041                             : en:Chapter 06
00:43:11.916                             : en:Chapter 07
00:51:19.250                             : en:Chapter 08
00:58:28.666                             : en:Chapter 09
01:03:29.875                             : en:Chapter 10
01:13:17.750                             : en:Chapter 11
01:20:46.500                             : en:Chapter 12
01:30:46.750                             : en:Chapter 13
01:39:56.125                             : en:Chapter 14
01:54:07.166                             : en:Chapter 15
02:02:55.208                             : en:Chapter 16
02:07:13.208                             : en:Chapter 17


悠悠MP4_MP4电影下载_在我父亲的洞穴里 In.My.Fathers.Den.2004.1080p.BluRay.x264.DTS-FGT 10.90GB悠悠MP4_MP4电影下载_在我父亲的洞穴里 In.My.Fathers.Den.2004.1080p.BluRay.x264.DTS-FGT 10.90GB悠悠MP4_MP4电影下载_在我父亲的洞穴里 In.My.Fathers.Den.2004.1080p.BluRay.x264.DTS-FGT 10.90GB


提示:如迅雷下载提示"任务出错"、"因版权无法下载",请尝试【迅雷5】
上传的附件:
最新回复 (0)
返回
本站所有资源均收集自互联网,没有提供影片资源存储, 也未参与录制、上传,若本站收录的资源无意侵犯了您的权益, 请联系邮箱:gogoimgs#gmail.com(#=@)