[更早] [欧美] [剧情] [BD-1080P] 废墟中的爱情 Love.Among.the.Ruins.1975.1080p.BluRay.x264.DTS-FGT 9.34GB

uump4 4天前 68

帖子完整标题:废墟中的爱情 Love.Among.the.Ruins.1975.1080p.BluRay.x264.DTS-FGT 9.34GB


悠悠MP4_MP4电影下载_废墟中的爱情 Love.Among.the.Ruins.1975.1080p.BluRay.x264.DTS-FGT 9.34GB

◎译  名 废墟中的爱情
◎片  名 Love Among the Ruins
◎年  代 1975
◎产  地 英国
◎类  别 剧情 / 喜剧 / 爱情
◎语  言 英语
◎上映日期 1975-03-06
◎IMDb评分  8.0/10 from 817 users
◎IMDb链接  https://www.imdb.com/title/tt0073310
◎豆瓣评分 0/10 from 0 users
◎豆瓣链接 https://movie.douban.com/subject/1306480/
◎片  长 100分钟
◎导  演 George Cukor
◎编  剧 James Costigan
◎主  演 Katharine Hepburn
       Laurence Olivier
       Colin Blakely


◎标  签 凯瑟琳·赫本 | Lawrence_Olivier | 1970s | 英国 | Katharine_Hepburn | 英国电影 | George_Cukor | 英國

◎简  介  

  步入晚年的女演员被起诉,原因是她毁弃婚约,而她雇用来为她打官司的律师居然是她的旧情人,可她却不知道律师仍然爱着她。此刻他们两都意识到,赢得官司保卫自己财产的唯一方法是自毁名声,他们两该何去何从呢?

Video
ID                                       : 1
Format                                   : AVC
Format/Info                              : Advanced Video Codec
Format profile                           : [email protected]
Format settings                          : CABAC / 4 Ref Frames
Format settings, CABAC                   : Yes
Format settings, Reference frames        : 4 frames
Codec ID                                 : V_MPEG4/ISO/AVC
Duration                                 : 1 h 42 min
Bit rate                                 : 11.5 Mb/s
Width                                    : 1 800 pixels
Height                                   : 1 080 pixels
Display aspect ratio                     : 5:3
Frame rate mode                          : Constant
Frame rate                               : 23.976 (24000/1001/189150) FPS
Color space                              : YUV
Chroma subsampling                       : 4:2:0
Bit depth                                : 8 bits
Scan type                                : Progressive
Bits/(Pixel*Frame)                       : 0.247
Stream size                              : 8.26 GiB (88%)
Title                                    : Love.Among.the.Ruins.1975.1080p.BluRay.x264.DTS-FGT
Writing library                          : x264 core 148 r2748 97eaef2
Encoding settings                        : cabac=1 / ref=4 / deblock=1:-2:-2 / analyse=0x3:0x113 / me=umh / subme=9 / psy=1 / psy_rd=1.00:0.15 / mixed_ref=1 / me_range=16 / chroma_me=1 / trellis=2 / 8x8dct=1 / cqm=0 / deadzone=21,11 / fast_pskip=1 / chroma_qp_offset=-3 / threads=24 / lookahead_threads=3 / sliced_threads=0 / nr=0 / decimate=1 / interlaced=0 / bluray_compat=0 / constrained_intra=0 / bframes=3 / b_pyramid=2 / b_adapt=1 / b_bias=0 / direct=3 / weightb=1 / open_gop=0 / weightp=2 / keyint=250 / keyint_min=25 / scenecut=40 / intra_refresh=0 / rc_lookahead=50 / rc=2pass / mbtree=1 / bitrate=11500 / ratetol=1.0 / qcomp=0.60 / qpmin=0 / qpmax=69 / qpstep=4 / cplxblur=20.0 / qblur=0.5 / vbv_maxrate=31250 / vbv_bufsize=31250 / nal_hrd=none / filler=0 / ip_ratio=1.40 / aq=1:1.00
Language                                 : English
Default                                  : Yes
Forced                                   : No

Audio
ID                                       : 2
Format                                   : DTS
Format/Info                              : Digital Theater Systems
Codec ID                                 : A_DTS
Duration                                 : 1 h 42 min
Bit rate mode                            : Constant
Bit rate                                 : 1 509 kb/s
Channel(s)                               : 2 channels
Channel layout                           : L R
Sampling rate                            : 48.0 kHz
Frame rate                               : 93.750 FPS (512 SPF)
Bit depth                                : 16 bits
Compression mode                         : Lossy
Stream size                              : 1.08 GiB (12%)
Title                                    : Love.Among.the.Ruins.1975.1080p.BluRay.x264.DTS-FGT
Language                                 : English
Default                                  : Yes
Forced                                   : No

Text
ID                                       : 3
Format                                   : UTF-8
Codec ID                                 : S_TEXT/UTF8
Codec ID/Info                            : UTF-8 Plain Text
Duration                                 : 1 h 38 min
Bit rate                                 : 89 b/s
Count of elements                        : 1702
Stream size                              : 65.1 KiB (0%)
Language                                 : English
Default                                  : Yes
Forced                                   : No

Menu
00:00:00.000                             : en:Chapter 01
00:14:24.666                             : en:Chapter 02
00:29:34.659                             : en:Chapter 03
00:44:37.144                             : en:Chapter 04
00:56:51.669                             : en:Chapter 05
01:11:57.366                             : en:Chapter 06
01:23:29.140                             : en:Chapter 07
01:32:08.743                             : en:Chapter 08


悠悠MP4_MP4电影下载_废墟中的爱情 Love.Among.the.Ruins.1975.1080p.BluRay.x264.DTS-FGT 9.34GB悠悠MP4_MP4电影下载_废墟中的爱情 Love.Among.the.Ruins.1975.1080p.BluRay.x264.DTS-FGT 9.34GB悠悠MP4_MP4电影下载_废墟中的爱情 Love.Among.the.Ruins.1975.1080p.BluRay.x264.DTS-FGT 9.34GB


提示:如迅雷下载提示"任务出错"、"因版权无法下载",请尝试【迅雷5】
上传的附件:
最新回复 (0)
返回
本站所有资源均收集自互联网,没有提供影片资源存储, 也未参与录制、上传,若本站收录的资源无意侵犯了您的权益, 请联系邮箱:gogoimgs#gmail.com(#=@)