[2008] [欧美] [其他] [WEB-1080P] 时代精神2/时代思潮:附录 Zeitgeist.The.Addendum.2008.1080p.AMZN.WEBRip.DDP2.0.x264-TEPES 7.

uump4 2月前 145

帖子完整标题:时代精神2/时代思潮:附录 Zeitgeist.The.Addendum.2008.1080p.AMZN.WEBRip.DDP2.0.x264-TEPES 7.86GB


悠悠MP4_MP4电影下载_时代精神2/时代思潮:附录 Zeitgeist.The.Addendum.2008.1080p.AMZN.WEBRip.DDP2.0.x264-TEPES 7.

◎译  名 时代精神2 / 时代思潮:附录
◎片  名 Zeitgeist: Addendum
◎年  代 2008
◎产  地 美国
◎类  别 纪录片 / 历史 / 战争
◎语  言 英语
◎上映日期 2008-10-02
◎IMDb评分  8.3/10 from 17516 users
◎IMDb链接  https://www.imdb.com/title/tt1332128
◎豆瓣评分 8.6/10 from 3129 users
◎豆瓣链接 https://movie.douban.com/subject/3325170/
◎片  长 123 分钟
◎导  演 彼得·约瑟夫 Peter Joseph
◎编  剧 彼得·约瑟夫 Peter Joseph
◎主  演 雅克·法斯科 Jacque Fresco
       Roxanne Meadows
       John Perkins
       乔治·卡林 George Carlin
       吉杜·克里希那穆提 Jiddu Krishnamurti
       Ron Paul


◎标  签 纪录片 | 美国 | 阴谋论 | 金融 | 政治 | 时代精神 | 2008 | Documentary

◎简  介  

  影片从金融业和货币规则的形成入手,揭露了其存在与运行的本质,指出包括美联储、世界银行在内的金融机构吞噬财富、奴役人民的罪恶行径。并例举巴拿马、伊朗、伊拉克、厄瓜多尔、委内瑞拉发生的一系列政治事件,与以大财团为幕后指使的美国金融机构存在着密切联系。随后引申出当前广为关注的能源、民主等问题,而当今诸多棘手的问题的症结所在皆可追溯至现存的金融货币体制。
  部分学者据此提出“维纳斯计划”,旨在引导人类追求一个无货币、共同珍惜并合理利用地球现有资源的后乌托邦社会。而实现这一目标的前提,就是彻底打破现有的金融体制。
  人类的明天是天堂还是地狱?选择就在自己手中。

Video
ID                                       : 1
Format                                   : AVC
Format/Info                              : Advanced Video Codec
Format profile                           : [email protected]
Format settings                          : CABAC / 4 Ref Frames
Format settings, CABAC                   : Yes
Format settings, Reference frames        : 4 frames
Codec ID                                 : V_MPEG4/ISO/AVC
Duration                                 : 2 h 3 min
Bit rate mode                            : Constant
Bit rate                                 : 8 909 kb/s
Nominal bit rate                         : 10 000 kb/s
Width                                    : 1 920 pixels
Height                                   : 1 080 pixels
Display aspect ratio                     : 16:9
Frame rate mode                          : Constant
Frame rate                               : 29.970 (30000/1001/189150) FPS
Standard                                 : NTSC
Color space                              : YUV
Chroma subsampling                       : 4:2:0
Bit depth                                : 8 bits
Scan type                                : Progressive
Bits/(Pixel*Frame)                       : 0.143
Stream size                              : 7.66 GiB (98%)
Language                                 : English
Default                                  : Yes
Forced                                   : No
Color range                              : Limited
Color primaries                          : BT.709
Transfer characteristics                 : BT.709
Matrix coefficients                      : BT.709

Audio
ID                                       : 2
Format                                   : E-AC-3
Format/Info                              : Enhanced AC-3
Commercial name                          : Dolby Digital Plus
Codec ID                                 : A_EAC3
Duration                                 : 2 h 3 min
Bit rate mode                            : Constant
Bit rate                                 : 224 kb/s
Channel(s)                               : 2 channels
Channel layout                           : L R
Sampling rate                            : 48.0 kHz
Frame rate                               : 31.250 FPS (1536 SPF)
Compression mode                         : Lossy
Stream size                              : 197 MiB (2%)
Language                                 : English
Service kind                             : Complete Main
Default                                  : Yes
Forced                                   : No

Text
ID                                       : 3
Format                                   : UTF-8
Codec ID                                 : S_TEXT/UTF8
Codec ID/Info                            : UTF-8 Plain Text
Duration                                 : 2 h 0 min
Bit rate                                 : 103 b/s
Count of elements                        : 2278
Stream size                              : 91.0 KiB (0%)
Title                                    : English [CC](SDH)
Language                                 : English
Default                                  : Yes
Forced                                   : No


悠悠MP4_MP4电影下载_时代精神2/时代思潮:附录 Zeitgeist.The.Addendum.2008.1080p.AMZN.WEBRip.DDP2.0.x264-TEPES 7.悠悠MP4_MP4电影下载_时代精神2/时代思潮:附录 Zeitgeist.The.Addendum.2008.1080p.AMZN.WEBRip.DDP2.0.x264-TEPES 7.悠悠MP4_MP4电影下载_时代精神2/时代思潮:附录 Zeitgeist.The.Addendum.2008.1080p.AMZN.WEBRip.DDP2.0.x264-TEPES 7.


提示:如迅雷下载提示"任务出错"、"因版权无法下载",请尝试【迅雷5】
上传的附件:
最新回复 (0)
返回
本站所有资源均收集自互联网,没有提供影片资源存储, 也未参与录制、上传,若本站收录的资源无意侵犯了您的权益, 请联系邮箱:gogoimgs#gmail.com(#=@)