[更早] [欧美] [喜剧] [WEB-1080P] 好友互整大电影/好友互整电影版 Impractical.Jokers.The.Movie.2020.1080p.AMZN.WEBRip.DDP5.1.x264-

uump4 1月前 361

帖子完整标题:好友互整大电影/好友互整电影版 Impractical.Jokers.The.Movie.2020.1080p.AMZN.WEBRip.DDP5.1.x264-PHOENiX 9.41GB


悠悠MP4_MP4电影下载_好友互整大电影/好友互整电影版 Impractical.Jokers.The.Movie.2020.1080p.AMZN.WEBRip.DDP5.1.x264-

◎译  名 好友互整大电影 / 好友互整电影版
◎片  名 Impractical Jokers: The Movie
◎年  代 2020
◎产  地 美国
◎类  别 喜剧
◎语  言 英语
◎上映日期 2020-02-21(美国)
◎IMDb评分  6.8/10 from 1445 users
◎IMDb链接  https://www.imdb.com/title/tt9208444
◎豆瓣评分 0/10 from 0 users
◎豆瓣链接 https://movie.douban.com/subject/34967855/
◎片  长 93分钟
◎导  演 克里斯·亨奇 Chris Henchy
◎编  剧 克里斯·亨奇 Chris Henchy / 布莱恩·奎恩 Brian Quinn
◎主  演 布莱恩·奎恩 Brian Quinn
       乔·加托 Joe Gatto
       詹姆斯·穆雷 James Murray
       萨尔·瓦卡诺 Sal Vulcano
       宝拉·阿巴杜 Paula Abdul
       埃文·卡斯特罗 Evan Castelloe
       乔伊·费通 Joey Fatone
       凯恩·霍德尔 Kane Hodder
       贾登·史密斯 Jaden Smith
       本杰明·韦弗 Benjamin Weaver


◎标  签 美国 | 喜剧 | 真人秀 | David

◎简  介  

  该影片是TruTV的同名恶搞剧集的电影版。

Video
ID                                       : 1
Format                                   : AVC
Format/Info                              : Advanced Video Codec
Format profile                           : [email protected]
Format settings                          : CABAC / 4 Ref Frames
Format settings, CABAC                   : Yes
Format settings, Reference frames        : 4 frames
Codec ID                                 : V_MPEG4/ISO/AVC
Duration                                 : 1 h 32 min
Bit rate                                 : 13.9 Mb/s
Width                                    : 1 920 pixels
Height                                   : 1 040 pixels
Display aspect ratio                     : 1.85:1
Frame rate mode                          : Constant
Frame rate                               : 23.976 (24000/1001/189150) FPS
Color space                              : YUV
Chroma subsampling                       : 4:2:0
Bit depth                                : 8 bits
Scan type                                : Progressive
Bits/(Pixel*Frame)                       : 0.291
Stream size                              : 9.00 GiB (96%)
Default                                  : Yes
Forced                                   : No
Color range                              : Limited
Color primaries                          : BT.709
Transfer characteristics                 : BT.709
Matrix coefficients                      : BT.709

Audio
ID                                       : 2
Format                                   : E-AC-3
Format/Info                              : Enhanced AC-3
Commercial name                          : Dolby Digital Plus
Codec ID                                 : A_EAC3
Duration                                 : 1 h 32 min
Bit rate mode                            : Constant
Bit rate                                 : 640 kb/s
Channel(s)                               : 6 channels
Channel layout                           : L R C LFE Ls Rs
Sampling rate                            : 48.0 kHz
Frame rate                               : 31.250 FPS (1536 SPF)
Compression mode                         : Lossy
Stream size                              : 423 MiB (4%)
Title                                    : English
Language                                 : English
Service kind                             : Complete Main
Default                                  : Yes
Forced                                   : No

Text
ID                                       : 3
Format                                   : UTF-8
Codec ID                                 : S_TEXT/UTF8
Codec ID/Info                            : UTF-8 Plain Text
Duration                                 : 1 h 32 min
Bit rate                                 : 108 b/s
Count of elements                        : 2405
Stream size                              : 73.4 KiB (0%)
Title                                    : English [CC]
Language                                 : English
Default                                  : No
Forced                                   : No


悠悠MP4_MP4电影下载_好友互整大电影/好友互整电影版 Impractical.Jokers.The.Movie.2020.1080p.AMZN.WEBRip.DDP5.1.x264-悠悠MP4_MP4电影下载_好友互整大电影/好友互整电影版 Impractical.Jokers.The.Movie.2020.1080p.AMZN.WEBRip.DDP5.1.x264-悠悠MP4_MP4电影下载_好友互整大电影/好友互整电影版 Impractical.Jokers.The.Movie.2020.1080p.AMZN.WEBRip.DDP5.1.x264-


提示:如迅雷下载提示"任务出错"、"因版权无法下载",请尝试【迅雷5】
上传的附件:
最新回复 (0)
返回
本站所有资源均收集自互联网,没有提供影片资源存储, 也未参与录制、上传,若本站收录的资源无意侵犯了您的权益, 请联系邮箱:gogoimgs#gmail.com(#=@)