[2018] [欧美] [喜剧] [WEB-1080P] 实现永恒幸福的七个阶段 Seven.Stages.to.Achieve.Eternal.Bliss.2018.1080p.AMZN.WEBRip.DDP5.1.

uump4 1月前 194

帖子完整标题:实现永恒幸福的七个阶段 Seven.Stages.to.Achieve.Eternal.Bliss.2018.1080p.AMZN.WEBRip.DDP5.1.x264-NTG 5.84GB


悠悠MP4_MP4电影下载_实现永恒幸福的七个阶段 Seven.Stages.to.Achieve.Eternal.Bliss.2018.1080p.AMZN.WEBRip.DDP5.1.

◎译  名 实现永恒幸福的七个阶段 / 7 Stages to Achieve Eternal Bliss by Passing Through the Gateway Chose by the Holy Storsh / Corpse Tub
◎片  名 Seven Stages to Achieve Eternal Bliss By Passing Through the Gateway Chosen By the Holy Storsh
◎年  代 2018
◎产  地 美国
◎类  别 喜剧
◎语  言 英语
◎上映日期 2018-04-20(美国)
◎IMDb评分  6.0/10 from 79 users
◎IMDb链接  https://www.imdb.com/title/tt4270452
◎豆瓣评分 0/10 from 0 users
◎豆瓣链接 https://movie.douban.com/subject/28440140/
◎导  演 Vivieno Caldinelli
◎编  剧 Christopher Hewitson / Clayton Hewitson / Justin Jones
◎主  演 塔伊加·维迪提 Taika Waititi
       凯特·米库奇 Kate Micucci
       萨姆·亨廷顿 Sam Huntington
       蕾亚·塞洪 Rhea Seehorn
       马特·琼斯 Matt Jones
       马克·麦金尼 Mark McKinney
       布莱恩·波塞恩 Brian Posehn
       明迪·斯特林 Mindy Sterling
       乔什·布雷纳 Josh Brener
       丹·哈萌 Dan Harmon
       J·李 J. Lee
       玛莉亚·班福德 Maria Bamford
       芮安·辛普金斯 Ryan Simpkins
       达纳·古尔德 Dana Gould
       布兰妮·扬 Britney Young
       迈克尔·圣迈克尔斯 Michael St. Michaels
       乔恩·多尔 Jon Dore
       John Yuan
       Matt Yuan
       Adam Brodie


◎标  签 美国 | 电影 | Tribeca2018 | 2018

◎简  介  

  A small-town couple finds the perfect apartment in the big city, except there's one catch: the apartment is home to the ritualistic suicides of a deranged cult.

Video
ID                                       : 1
Format                                   : AVC
Format/Info                              : Advanced Video Codec
Format profile                           : [email protected]
Format settings                          : CABAC / 4 Ref Frames
Format settings, CABAC                   : Yes
Format settings, Reference frames        : 4 frames
Codec ID                                 : V_MPEG4/ISO/AVC
Duration                                 : 1 h 28 min
Bit rate mode                            : Constant
Bit rate                                 : 8 832 kb/s
Nominal bit rate                         : 10 000 kb/s
Width                                    : 1 920 pixels
Height                                   : 800 pixels
Display aspect ratio                     : 2.40:1
Frame rate mode                          : Constant
Frame rate                               : 23.976 (24000/1001/189150) FPS
Color space                              : YUV
Chroma subsampling                       : 4:2:0
Bit depth                                : 8 bits
Scan type                                : Progressive
Bits/(Pixel*Frame)                       : 0.240
Stream size                              : 5.44 GiB (93%)
Default                                  : Yes
Forced                                   : No
Color range                              : Limited
Color primaries                          : BT.709
Transfer characteristics                 : BT.709
Matrix coefficients                      : BT.709

Audio
ID                                       : 2
Format                                   : E-AC-3
Format/Info                              : Enhanced AC-3
Commercial name                          : Dolby Digital Plus
Codec ID                                 : A_EAC3
Duration                                 : 1 h 28 min
Bit rate mode                            : Constant
Bit rate                                 : 640 kb/s
Channel(s)                               : 6 channels
Channel layout                           : L R C LFE Ls Rs
Sampling rate                            : 48.0 kHz
Frame rate                               : 31.250 FPS (1536 SPF)
Compression mode                         : Lossy
Stream size                              : 404 MiB (7%)
Language                                 : English
Service kind                             : Complete Main
Default                                  : Yes
Forced                                   : No

Text #1
ID                                       : 3
Format                                   : UTF-8
Codec ID                                 : S_TEXT/UTF8
Codec ID/Info                            : UTF-8 Plain Text
Duration                                 : 1 h 25 min
Bit rate                                 : 76 b/s
Count of elements                        : 1499
Stream size                              : 48.4 KiB (0%)
Language                                 : English
Default                                  : No
Forced                                   : No

Text #2
ID                                       : 4
Format                                   : UTF-8
Codec ID                                 : S_TEXT/UTF8
Codec ID/Info                            : UTF-8 Plain Text
Duration                                 : 1 h 27 min
Bit rate                                 : 80 b/s
Count of elements                        : 1638
Stream size                              : 51.6 KiB (0%)
Title                                    : SDH
Language                                 : English
Default                                  : No
Forced                                   : No


悠悠MP4_MP4电影下载_实现永恒幸福的七个阶段 Seven.Stages.to.Achieve.Eternal.Bliss.2018.1080p.AMZN.WEBRip.DDP5.1.悠悠MP4_MP4电影下载_实现永恒幸福的七个阶段 Seven.Stages.to.Achieve.Eternal.Bliss.2018.1080p.AMZN.WEBRip.DDP5.1.悠悠MP4_MP4电影下载_实现永恒幸福的七个阶段 Seven.Stages.to.Achieve.Eternal.Bliss.2018.1080p.AMZN.WEBRip.DDP5.1.


提示:如迅雷下载提示"任务出错"、"因版权无法下载",请尝试【迅雷5】
上传的附件:
最新回复 (0)
返回
本站所有资源均收集自互联网,没有提供影片资源存储, 也未参与录制、上传,若本站收录的资源无意侵犯了您的权益, 请联系邮箱:gogoimgs#gmail.com(#=@)