[更早] [欧美] [喜剧] [BD-Remux] 多力特的奇幻冒险 Dolittle.2020.1080p.BluRay.REMUX.AVC.DTS-HD.MA.TrueHD.7.1.Atmos-FGT 27.

uump4 1月前 178

帖子完整标题:多力特的奇幻冒险 Dolittle.2020.1080p.BluRay.REMUX.AVC.DTS-HD.MA.TrueHD.7.1.Atmos-FGT 27.25GB


悠悠MP4_MP4电影下载_多力特的奇幻冒险 Dolittle.2020.1080p.BluRay.REMUX.AVC.DTS-HD.MA.TrueHD.7.1.Atmos-FGT 27.

◎译  名 多力特的奇幻冒险 / The Vogage of Dr. Dolittle / The Voyage of Doctor Dolittle / 怪医D老笃(港) / 怪医杜立德 / 怪医杜立德历险记 / 杜立德(台) / 杜立德医生的旅行
◎片  名 Dolittle
◎年  代 2020
◎产  地 美国
◎类  别 喜剧 / 奇幻 / 冒险
◎语  言 英语
◎上映日期 2020(中国大陆) / 2020-01-17(美国)
◎IMDb评分  5.5/10 from 17433 users
◎IMDb链接  https://www.imdb.com/title/tt6673612
◎豆瓣评分 5.5/10 from 7394 users
◎豆瓣链接 https://movie.douban.com/subject/27000981/
◎片  长 101分钟
◎导  演 斯蒂芬·加汉 Stephen Gaghan
◎编  剧 斯蒂芬·加汉 Stephen Gaghan / 丹·格雷戈尔 Dan Gregor / 休·洛夫廷 Hugh Lofting / 道格·曼德 Doug Mand
◎主  演 小罗伯特·唐尼 Robert Downey Jr.
       汤姆·赫兰德 Tom Holland
       拉米·马雷克 Rami Malek
       麦克·辛 Michael Sheen
       杰西·巴克利 Jessie Buckley
       艾玛·汤普森 Emma Thompson
       拉尔夫·费因斯 Ralph Fiennes
       安东尼奥·班德拉斯 Antonio Banderas
       玛丽昂·歌迪亚 Marion Cotillard
       赛琳娜·戈麦斯 Selena Gomez
       约翰·塞纳 John Cena
       卡门·艾乔戈 Carmen Ejogo
       库梅尔·南贾尼 Kumail Nanjiani
       奥克塔维亚·斯宾瑟 Octavia Spencer
       拉尔夫·伊内森 Ralph Ineson
       吉姆·布劳德本特 Jim Broadbent
       克雷格·罗宾森 Craig Robinson
       弗朗西斯·德·拉·图瓦 Frances de la Tour
       卡夏·斯穆特尼亚克 Kasia Smutniak
       奥利弗·库珀史密斯 Oliver Coopersmith
       尼克·穆罕默德 Nick Mohammed
       托尼娅·科妮斯 Tonya Cornelisse
       萨克·霍兰 Zak Holland
       纳西尔·贾玛 Nasir Jama
       贝恩·科拉科 Bern Colla?o
       约瑟夫·巴德拉玛 Joseph Balderrama
       萨姆森·卡约 Samson Kayo
       史蒂芬·萨姆森 Stephen Samson
       塔希尔·布尔汉 Tahir Burhan
       保罗·霍洛瓦蒂 Paul Holowaty


◎标  签 奇幻 | 喜剧 | 动物 | 美国 | 童话 | 冒险 | 2020 | 科幻

◎简  介  

  失去妻子后的7年中,约翰·杜立德医生把自己关在庄园里与动物相伴。当时年轻的女王身患重病,杜立德医生不情愿出门冒险,前往神秘的岛屿寻找治疗方法,这让他重获勇气和智慧,因为他击败了老对手,还发现了奇妙的新生物。

Video
ID                                       : 1
Format                                   : AVC
Format/Info                              : Advanced Video Codec
Format profile                           : [email protected]
Format settings                          : CABAC / 4 Ref Frames
Format settings, CABAC                   : Yes
Format settings, Reference frames        : 4 frames
Codec ID                                 : V_MPEG4/ISO/AVC
Duration                                 : 1 h 41 min
Bit rate mode                            : Variable
Bit rate                                 : 28.4 Mb/s
Maximum bit rate                         : 31.0 Mb/s
Width                                    : 1 920 pixels
Height                                   : 1 080 pixels
Display aspect ratio                     : 16:9
Frame rate mode                          : Constant
Frame rate                               : 23.976 (24000/1001/189150) FPS
Color space                              : YUV
Chroma subsampling                       : 4:2:0
Bit depth                                : 8 bits
Scan type                                : Progressive
Bits/(Pixel*Frame)                       : 0.572
Stream size                              : 20.1 GiB (74%)
Title                                    : Dolittle.2020.1080p.BluRay.REMUX.AVC.DTS-HD.MA.TrueHD.7.1.Atmos-FGT
Language                                 : English
Default                                  : No
Forced                                   : No

Audio #1
ID                                       : 2
Format                                   : MLP FBA 16-ch
Format/Info                              : Meridian Lossless Packing FBA with 16-channel presentation
Commercial name                          : Dolby TrueHD with Dolby Atmos
Codec ID                                 : A_TRUEHD
Duration                                 : 1 h 41 min
Bit rate mode                            : Variable
Bit rate                                 : 2 916 kb/s
Maximum bit rate                         : 4 629 kb/s
Channel(s)                               : 8 channels
Channel layout                           : L R C LFE Ls Rs Lb Rb
Sampling rate                            : 48.0 kHz
Frame rate                               : 1 200.000 FPS (40 SPF)
Compression mode                         : Lossless
Stream size                              : 2.07 GiB (8%)
Title                                    : Dolittle.2020.1080p.BluRay.REMUX.AVC.DTS-HD.MA.TrueHD.7.1.Atmos-FGT
Language                                 : English
Default                                  : Yes
Forced                                   : No
Number of dynamic objects                : 11
Bed channel count                        : 1 channel
Bed channel configuration                : LFE

Audio #2
ID                                       : 3
Format                                   : DTS XLL
Format/Info                              : Digital Theater Systems
Commercial name                          : DTS-HD Master Audio
Codec ID                                 : A_DTS
Duration                                 : 1 h 41 min
Bit rate mode                            : Variable
Bit rate                                 : 3 958 kb/s
Channel(s)                               : 8 channels
Channel layout                           : C L R LFE Lb Rb Lss Rss
Sampling rate                            : 48.0 kHz
Frame rate                               : 93.750 FPS (512 SPF)
Bit depth                                : 24 bits
Compression mode                         : Lossless
Stream size                              : 2.80 GiB (10%)
Title                                    : Dolittle.2020.1080p.BluRay.REMUX.AVC.DTS-HD.MA.TrueHD.7.1.Atmos-FGT
Language                                 : English
Default                                  : No
Forced                                   : No

Audio #3
ID                                       : 4
Format                                   : AC-3
Format/Info                              : Audio Coding 3
Commercial name                          : Dolby Digital
Codec ID                                 : A_AC3
Duration                                 : 1 h 41 min
Bit rate mode                            : Constant
Bit rate                                 : 448 kb/s
Channel(s)                               : 6 channels
Channel layout                           : L R C LFE Ls Rs
Sampling rate                            : 48.0 kHz
Frame rate                               : 31.250 FPS (1536 SPF)
Bit depth                                : 16 bits
Compression mode                         : Lossy
Stream size                              : 325 MiB (1%)
Title                                    : Dolittle.2020.1080p.BluRay.REMUX.AVC.DTS-HD.MA.TrueHD.7.1.Atmos-FGT
Language                                 : English
Service kind                             : Complete Main
Default                                  : No
Forced                                   : No

Audio #4
ID                                       : 5
Format                                   : E-AC-3
Format/Info                              : Enhanced AC-3
Commercial name                          : Dolby Digital Plus
Format profile                           : Blu-ray Disc
Codec ID                                 : A_EAC3
Duration                                 : 1 h 41 min
Bit rate mode                            : Constant
Bit rate                                 : 768 kb/s
Channel(s)                               : 8 channels
Channel layout                           : L R C LFE Ls Rs Lb Rb
Sampling rate                            : 48.0 kHz
Frame rate                               : 31.250 FPS (1536 SPF)
Compression mode                         : Lossy
Stream size                              : 557 MiB (2%)
Title                                    : Dolittle.2020.1080p.BluRay.REMUX.AVC.DTS-HD.MA.TrueHD.7.1.Atmos-FGT
Language                                 : Spanish
Service kind                             : Complete Main
Default                                  : No
Forced                                   : No

Audio #5
ID                                       : 6
Format                                   : AC-3
Format/Info                              : Audio Coding 3
Commercial name                          : Dolby Digital
Codec ID                                 : A_AC3
Duration                                 : 1 h 41 min
Bit rate mode                            : Constant
Bit rate                                 : 448 kb/s
Channel(s)                               : 6 channels
Channel layout                           : L R C LFE Ls Rs
Sampling rate                            : 48.0 kHz
Frame rate                               : 31.250 FPS (1536 SPF)
Bit depth                                : 16 bits
Compression mode                         : Lossy
Stream size                              : 325 MiB (1%)
Title                                    : Dolittle.2020.1080p.BluRay.REMUX.AVC.DTS-HD.MA.TrueHD.7.1.Atmos-FGT
Language                                 : Spanish
Service kind                             : Complete Main
Default                                  : No
Forced                                   : No

Audio #6
ID                                       : 7
Format                                   : E-AC-3
Format/Info                              : Enhanced AC-3
Commercial name                          : Dolby Digital Plus
Format profile                           : Blu-ray Disc
Codec ID                                 : A_EAC3
Duration                                 : 1 h 41 min
Bit rate mode                            : Constant
Bit rate                                 : 768 kb/s
Channel(s)                               : 8 channels
Channel layout                           : L R C LFE Ls Rs Lb Rb
Sampling rate                            : 48.0 kHz
Frame rate                               : 31.250 FPS (1536 SPF)
Compression mode                         : Lossy
Stream size                              : 557 MiB (2%)
Title                                    : Dolittle.2020.1080p.BluRay.REMUX.AVC.DTS-HD.MA.TrueHD.7.1.Atmos-FGT
Language                                 : French
Service kind                             : Complete Main
Default                                  : No
Forced                                   : No

Audio #7
ID                                       : 8
Format                                   : AC-3
Format/Info                              : Audio Coding 3
Commercial name                          : Dolby Digital
Codec ID                                 : A_AC3
Duration                                 : 1 h 41 min
Bit rate mode                            : Constant
Bit rate                                 : 448 kb/s
Channel(s)                               : 6 channels
Channel layout                           : L R C LFE Ls Rs
Sampling rate                            : 48.0 kHz
Frame rate                               : 31.250 FPS (1536 SPF)
Bit depth                                : 16 bits
Compression mode                         : Lossy
Stream size                              : 325 MiB (1%)
Title                                    : Dolittle.2020.1080p.BluRay.REMUX.AVC.DTS-HD.MA.TrueHD.7.1.Atmos-FGT
Language                                 : French
Service kind                             : Complete Main
Default                                  : No
Forced                                   : No

Audio #8
ID                                       : 9
Format                                   : AC-3
Format/Info                              : Audio Coding 3
Commercial name                          : Dolby Digital
Codec ID                                 : A_AC3
Duration                                 : 1 h 41 min
Bit rate mode                            : Constant
Bit rate                                 : 192 kb/s
Channel(s)                               : 2 channels
Channel layout                           : L R
Sampling rate                            : 48.0 kHz
Frame rate                               : 31.250 FPS (1536 SPF)
Bit depth                                : 16 bits
Compression mode                         : Lossy
Stream size                              : 139 MiB (0%)
Title                                    : Dolittle.2020.1080p.BluRay.REMUX.AVC.DTS-HD.MA.TrueHD.7.1.Atmos-FGT
Language                                 : English
Service kind                             : Complete Main
Default                                  : No
Forced                                   : No

Text #1
ID                                       : 10
Format                                   : UTF-8
Codec ID                                 : S_TEXT/UTF8
Codec ID/Info                            : UTF-8 Plain Text
Duration                                 : 1 h 32 min
Bit rate                                 : 62 b/s
Count of elements                        : 1498
Stream size                              : 42.7 KiB (0%)
Title                                    : English-SRT
Language                                 : English
Default                                  : Yes
Forced                                   : No

Text #2
ID                                       : 11
Format                                   : PGS
Muxing mode                              : zlib
Codec ID                                 : S_HDMV/PGS
Codec ID/Info                            : Picture based subtitle format used on BDs/HD-DVDs
Duration                                 : 1 h 32 min
Bit rate                                 : 53.7 kb/s
Count of elements                        : 3750
Stream size                              : 35.6 MiB (0%)
Title                                    : English-PGS
Language                                 : English
Default                                  : No
Forced                                   : No

Text #3
ID                                       : 12
Format                                   : PGS
Muxing mode                              : zlib
Codec ID                                 : S_HDMV/PGS
Codec ID/Info                            : Picture based subtitle format used on BDs/HD-DVDs
Duration                                 : 1 h 40 min
Bit rate                                 : 35.1 kb/s
Count of elements                        : 2794
Stream size                              : 25.2 MiB (0%)
Title                                    : Spanish-PGS
Language                                 : Spanish
Default                                  : No
Forced                                   : No

Text #4
ID                                       : 13
Format                                   : PGS
Muxing mode                              : zlib
Codec ID                                 : S_HDMV/PGS
Codec ID/Info                            : Picture based subtitle format used on BDs/HD-DVDs
Duration                                 : 1 h 40 min
Bit rate                                 : 36.8 kb/s
Count of elements                        : 2782
Stream size                              : 26.4 MiB (0%)
Title                                    : French-PGS
Language                                 : French
Default                                  : No
Forced                                   : No

Text #5
ID                                       : 14
Format                                   : PGS
Muxing mode                              : zlib
Codec ID                                 : S_HDMV/PGS
Codec ID/Info                            : Picture based subtitle format used on BDs/HD-DVDs
Duration                                 : 1 h 34 min
Bit rate                                 : 398 b/s
Count of elements                        : 26
Stream size                              : 277 KiB (0%)
Title                                    : Spanish-FORCED-PGS
Language                                 : Spanish
Default                                  : No
Forced                                   : No

Text #6
ID                                       : 15
Format                                   : PGS
Muxing mode                              : zlib
Codec ID                                 : S_HDMV/PGS
Codec ID/Info                            : Picture based subtitle format used on BDs/HD-DVDs
Duration                                 : 1 h 36 min
Bit rate                                 : 555 b/s
Count of elements                        : 34
Stream size                              : 394 KiB (0%)
Title                                    : French-FORCED-PGS
Language                                 : French
Default                                  : No
Forced                                   : No

Menu
00:00:00.000                             : en:Chapter 01
00:04:22.595                             : en:Chapter 02
00:09:36.826                             : en:Chapter 03
00:14:31.245                             : en:Chapter 04
00:18:37.324                             : en:Chapter 05
00:20:57.798                             : en:Chapter 06
00:23:02.172                             : en:Chapter 07
00:29:30.226                             : en:Chapter 08
00:35:58.156                             : en:Chapter 09
00:39:08.471                             : en:Chapter 10
00:45:47.745                             : en:Chapter 11
00:48:28.906                             : en:Chapter 12
00:53:06.933                             : en:Chapter 13
00:59:13.466                             : en:Chapter 14
01:04:55.141                             : en:Chapter 15
01:11:16.772                             : en:Chapter 16
01:17:05.996                             : en:Chapter 17
01:23:36.011                             : en:Chapter 18
01:30:02.063                             : en:Chapter 19
01:32:58.364                             : en:Chapter 20


悠悠MP4_MP4电影下载_多力特的奇幻冒险 Dolittle.2020.1080p.BluRay.REMUX.AVC.DTS-HD.MA.TrueHD.7.1.Atmos-FGT 27.悠悠MP4_MP4电影下载_多力特的奇幻冒险 Dolittle.2020.1080p.BluRay.REMUX.AVC.DTS-HD.MA.TrueHD.7.1.Atmos-FGT 27.悠悠MP4_MP4电影下载_多力特的奇幻冒险 Dolittle.2020.1080p.BluRay.REMUX.AVC.DTS-HD.MA.TrueHD.7.1.Atmos-FGT 27.


提示:如迅雷下载提示"任务出错"、"因版权无法下载",请尝试【迅雷5】
上传的附件:
最新回复 (0)
返回
本站所有资源均收集自互联网,没有提供影片资源存储, 也未参与录制、上传,若本站收录的资源无意侵犯了您的权益, 请联系邮箱:gogoimgs#gmail.com(#=@)