[更早] [欧美] [剧情] [BD-720P] 男宠阿尔菲 Alfie.Darling.1975.720p.BluRay.x264-SPOOKS 4.38GB

uump4 1月前 76

帖子完整标题:男宠阿尔菲 Alfie.Darling.1975.720p.BluRay.x264-SPOOKS 4.38GB


悠悠MP4_MP4电影下载_男宠阿尔菲 Alfie.Darling.1975.720p.BluRay.x264-SPOOKS 4.38GB

◎译  名 男宠阿尔菲
◎片  名 Alfie Darling
◎年  代 1975
◎产  地 英国
◎类  别 剧情 / 喜剧
◎语  言 英语
◎上映日期 1975
◎IMDb评分 4.5/10 from 204 users
◎IMDb链接 https://www.imdb.com/title/tt0072623
◎豆瓣评分 0/10 from 0 users
◎豆瓣链接 https://movie.douban.com/subject/5054106/
◎片  长 102 分钟
◎导  演 肯·休斯 Ken Hughes
◎编  剧 比尔·诺顿 Bill Naughton
◎主  演 Alan Price
      Jill Townsend
      保罗·科普利 Paul Copley
      琼·柯琳斯 Joan Collins
      希拉·怀特 Sheila White


◎标  签 英国电影 | 英国 | 喜剧 | 剧情

◎简  介

  Alfie Elkins (Alan Price) returns, up to his old womanizing ways, until he meets his match in a sophisticated Magazine Editor Abby Summers (Jill Townsend). His pursuit is complicated by his encounter with Norma (Sheila White) and the fact that a jealous husband won't let him forget about his time with his wife Fay (Dame Joan Collins).
Video
ID : 1
Format : AVC
Format/Info : Advanced Video Codec
Format profile : [email protected]
Format settings : CABAC / 9 Ref Frames
Format settings, CABAC : Yes
Format settings, Reference frames : 9 frames
Codec ID : V_MPEG4/ISO/AVC
Duration : 1 h 42 min
Bit rate : 5 606 kb/s
Width : 1 200 pixels
Height : 720 pixels
Display aspect ratio : 5:3
Frame rate mode : Constant
Frame rate : 24.000 FPS
Color space : YUV
Chroma subsampling : 4:2:0
Bit depth : 8 bits
Scan type : Progressive
Bits/(Pixel*Frame) : 0.270
Stream size : 4.01 GiB (92%)
Writing library : x264 core 159 r2991 1771b55
Encoding settings : cabac=1 / ref=9 / deblock=1:-3:-3 / analyse=0x3:0x133 / me=umh / subme=9 / psy=1 / psy_rd=1.00:0.00 / mixed_ref=1 / me_range=24 / chroma_me=1 / trellis=1 / 8x8dct=1 / cqm=0 / deadzone=21,11 / fast_pskip=0 / chroma_qp_offset=-2 / threads=22 / lookahead_threads=3 / sliced_threads=0 / nr=0 / decimate=1 / interlaced=0 / bluray_compat=0 / constrained_intra=0 / bframes=8 / b_pyramid=2 / b_adapt=2 / b_bias=0 / direct=3 / weightb=1 / open_gop=0 / weightp=2 / keyint=250 / keyint_min=24 / scenecut=40 / intra_refresh=0 / rc_lookahead=60 / rc=2pass / mbtree=1 / bitrate=5606 / ratetol=1.0 / qcomp=0.60 / qpmin=0 / qpmax=69 / qpstep=4 / cplxblur=20.0 / qblur=0.5 / vbv_maxrate=62500 / vbv_bufsize=78125 / nal_hrd=none / filler=0 / ip_ratio=1.40 / aq=1:1.00
Default : Yes
Forced : No

Audio
ID : 2
Format : FLAC
Format/Info : Free Lossless Audio Codec
Codec ID : A_FLAC
Duration : 1 h 42 min
Bit rate mode : Variable
Bit rate : 505 kb/s
Channel(s) : 2 channels
Channel layout : L R
Sampling rate : 48.0 kHz
Frame rate : 10.417 FPS (4608 SPF)
Bit depth : 16 bits
Compression mode : Lossless
Stream size : 370 MiB (8%)
Writing library : Lavf58.29.100
Language : English
Default : Yes
Forced : No

Menu
00:00:00.000 : en:Chapter 01
00:07:55.167 : en:Chapter 02
00:17:12.208 : en:Chapter 03
00:25:48.583 : en:Chapter 04
00:32:08.500 : en:Chapter 05
00:41:50.250 : en:Chapter 06
00:48:44.708 : en:Chapter 07
00:54:22.792 : en:Chapter 08
01:04:58.583 : en:Chapter 09
01:11:13.167 : en:Chapter 10
01:21:02.417 : en:Chapter 11
01:32:54.500 : en:Chapter 12

悠悠MP4_MP4电影下载_男宠阿尔菲 Alfie.Darling.1975.720p.BluRay.x264-SPOOKS 4.38GB


提示:如迅雷下载提示"任务出错"、"因版权无法下载",请尝试【迅雷5】
上传的附件:
最新回复 (0)
返回
本站所有资源均收集自互联网,没有提供影片资源存储, 也未参与录制、上传,若本站收录的资源无意侵犯了您的权益, 请联系邮箱:gogoimgs#gmail.com(#=@)