[更早] [欧美] [喜剧] [BD-720P] 多力特的奇幻冒险 Dolittle.2020.720p.BluRay.x264-YOL0W 4.38GB

uump4 2月前 106

帖子完整标题:多力特的奇幻冒险 Dolittle.2020.720p.BluRay.x264-YOL0W 4.38GB


悠悠MP4_MP4电影下载_多力特的奇幻冒险 Dolittle.2020.720p.BluRay.x264-YOL0W 4.38GB

◎译  名 多力特的奇幻冒险 / The Vogage of Dr. Dolittle / The Voyage of Doctor Dolittle / 怪医D老笃(港) / 怪医杜立德 / 怪医杜立德历险记 / 杜立德(台) / 杜立德医生的旅行
◎片  名 Dolittle
◎年  代 2020
◎产  地 美国
◎类  别 喜剧 / 奇幻 / 冒险
◎语  言 英语
◎上映日期 2020(中国大陆) / 2020-01-17(美国)
◎IMDb评分 5.5/10 from 17433 users
◎IMDb链接 https://www.imdb.com/title/tt6673612
◎豆瓣评分 5.5/10 from 7394 users
◎豆瓣链接 https://movie.douban.com/subject/27000981/
◎片  长 101分钟
◎导  演 斯蒂芬·加汉 Stephen Gaghan
◎编  剧 斯蒂芬·加汉 Stephen Gaghan / 丹·格雷戈尔 Dan Gregor / 休·洛夫廷 Hugh Lofting / 道格·曼德 Doug Mand
◎主  演 小罗伯特·唐尼 Robert Downey Jr.
      汤姆·赫兰德 Tom Holland
      拉米·马雷克 Rami Malek
      麦克·辛 Michael Sheen
      杰西·巴克利 Jessie Buckley
      艾玛·汤普森 Emma Thompson
      拉尔夫·费因斯 Ralph Fiennes
      安东尼奥·班德拉斯 Antonio Banderas
      玛丽昂·歌迪亚 Marion Cotillard
      赛琳娜·戈麦斯 Selena Gomez
      约翰·塞纳 John Cena
      卡门·艾乔戈 Carmen Ejogo
      库梅尔·南贾尼 Kumail Nanjiani
      奥克塔维亚·斯宾瑟 Octavia Spencer
      拉尔夫·伊内森 Ralph Ineson
      吉姆·布劳德本特 Jim Broadbent
      克雷格·罗宾森 Craig Robinson
      弗朗西斯·德·拉·图瓦 Frances de la Tour
      卡夏·斯穆特尼亚克 Kasia Smutniak
      奥利弗·库珀史密斯 Oliver Coopersmith
      尼克·穆罕默德 Nick Mohammed
      托尼娅·科妮斯 Tonya Cornelisse
      萨克·霍兰 Zak Holland
      纳西尔·贾玛 Nasir Jama
      贝恩·科拉科 Bern Colla?o
      约瑟夫·巴德拉玛 Joseph Balderrama
      萨姆森·卡约 Samson Kayo
      史蒂芬·萨姆森 Stephen Samson
      塔希尔·布尔汉 Tahir Burhan
      保罗·霍洛瓦蒂 Paul Holowaty


◎标  签 奇幻 | 喜剧 | 动物 | 美国 | 童话 | 冒险 | 2020 | 科幻

◎简  介

  失去妻子后的7年中,约翰·杜立德医生把自己关在庄园里与动物相伴。当时年轻的女王身患重病,杜立德医生不情愿出门冒险,前往神秘的岛屿寻找治疗方法,这让他重获勇气和智慧,因为他击败了老对手,还发现了奇妙的新生物。
Video
ID : 1
Format : AVC
Format/Info : Advanced Video Codec
Format profile : [email protected]
Format settings : CABAC / 8 Ref Frames
Format settings, CABAC : Yes
Format settings, Reference frames : 8 frames
Codec ID : V_MPEG4/ISO/AVC
Duration : 1 h 41 min
Bit rate : 5 527 kb/s
Width : 1 280 pixels
Height : 690 pixels
Display aspect ratio : 1.85:1
Frame rate mode : Constant
Frame rate : 23.976 (24000/1001/189150) FPS
Color space : YUV
Chroma subsampling : 4:2:0
Bit depth : 8 bits
Scan type : Progressive
Bits/(Pixel*Frame) : 0.261
Stream size : 3.91 GiB (90%)
Writing library : x264 core 159 r2991 1771b55
Encoding settings : cabac=1 / ref=8 / deblock=1:-3:-3 / analyse=0x3:0x133 / me=umh / subme=7 / psy=1 / psy_rd=1.00:0.00 / mixed_ref=1 / me_range=16 / chroma_me=1 / trellis=2 / 8x8dct=1 / cqm=0 / deadzone=21,11 / fast_pskip=1 / chroma_qp_offset=-2 / threads=16 / lookahead_threads=2 / sliced_threads=0 / nr=0 / decimate=1 / interlaced=0 / bluray_compat=0 / constrained_intra=0 / bframes=3 / b_pyramid=2 / b_adapt=2 / b_bias=0 / direct=3 / weightb=1 / open_gop=0 / weightp=2 / keyint=250 / keyint_min=23 / scenecut=40 / intra_refresh=0 / rc_lookahead=50 / rc=2pass / mbtree=1 / bitrate=5527 / ratetol=1.0 / qcomp=0.60 / qpmin=0 / qpmax=69 / qpstep=4 / cplxblur=20.0 / qblur=0.5 / ip_ratio=1.40 / aq=1:1.00
Language : English
Default : Yes
Forced : No
Color range : Limited
Matrix coefficients : BT.709

Audio
ID : 2
Format : AC-3
Format/Info : Audio Coding 3
Commercial name : Dolby Digital
Codec ID : A_AC3
Duration : 1 h 41 min
Bit rate mode : Constant
Bit rate : 640 kb/s
Channel(s) : 6 channels
Channel layout : L R C LFE Ls Rs
Sampling rate : 48.0 kHz
Frame rate : 31.250 FPS (1536 SPF)
Bit depth : 16 bits
Compression mode : Lossy
Stream size : 464 MiB (10%)
Title : English
Language : English
Service kind : Complete Main
Default : Yes
Forced : No

Menu
00:00:00.000 : en:Chapter 01
00:04:22.596 : en:Chapter 02
00:09:36.826 : en:Chapter 03
00:14:31.245 : en:Chapter 04
00:18:37.325 : en:Chapter 05
00:20:57.798 : en:Chapter 06
00:23:02.172 : en:Chapter 07
00:29:30.227 : en:Chapter 08
00:35:58.156 : en:Chapter 09
00:39:08.471 : en:Chapter 10
00:45:47.745 : en:Chapter 11
00:48:28.906 : en:Chapter 12
00:53:06.392 : en:Chapter 13
00:59:13.467 : en:Chapter 14
01:04:55.141 : en:Chapter 15
01:11:16.272 : en:Chapter 16
01:17:05.996 : en:Chapter 17
01:23:35.928 : en:Chapter 18
01:30:01.479 : en:Chapter 19
01:32:58.239 : en:Chapter 20

悠悠MP4_MP4电影下载_多力特的奇幻冒险 Dolittle.2020.720p.BluRay.x264-YOL0W 4.38GB


提示:如迅雷下载提示"任务出错"、"因版权无法下载",请尝试【迅雷5】
上传的附件:
最新回复 (0)
返回
本站所有资源均收集自互联网,没有提供影片资源存储, 也未参与录制、上传,若本站收录的资源无意侵犯了您的权益, 请联系邮箱:gogoimgs#gmail.com(#=@)