[更早] [欧美] [动作] [WEB-720P] 绅士们 The.Gentlemen.2019.720p.AMZN.WEBRip.DDP5.1.x264-TEPES 3.41GB

uump4 2月前 399

帖子完整标题:绅士们 The.Gentlemen.2019.720p.AMZN.WEBRip.DDP5.1.x264-TEPES 3.41GB


悠悠MP4_MP4电影下载_绅士们 The.Gentlemen.2019.720p.AMZN.WEBRip.DDP5.1.x264-TEPES 3.41GB

◎译  名 绅士们 / Bush / Toff Guys / 布什 / 有钱人 / 灌木 / 疯狂绅士帮(港) / 纨绔子弟 / 绅士 / 绅士追杀令(台)
◎片  名 The Gentlemen
◎年  代 2020
◎产  地 美国
◎类  别 动作 / 犯罪
◎语  言 英语
◎上映日期 2020-01-24(美国)
◎IMDb评分 8.1/10 from 52134 users
◎IMDb链接 https://www.imdb.com/title/tt8367814
◎豆瓣评分 8.2/10 from 2035 users
◎豆瓣链接 https://movie.douban.com/subject/30211998/
◎片  长 113分钟
◎导  演 盖·里奇 Guy Ritchie
◎编  剧 盖·里奇 Guy Ritchie / 伊凡·阿特金森 Ivan Atkinson / 马恩·戴维斯 Marn Davies
◎主  演 马修·麦康纳 Matthew McConaughey
      查理·汉纳姆 Charlie Hunnam
      亨利·戈尔丁 Henry Golding
      米歇尔·道克瑞 Michelle Dockery
      杰瑞米·斯特朗 Jeremy Strong
      科林·法瑞尔 Colin Farrell
      休·格兰特 Hugh Grant
      琳·莱妮 Lyne Renee
      马克斯·班内特 Max Bennett
      布列塔尼·阿什沃思 Brittany Ashworth
      伊川东吾 Togo Igawa
      尤金娜·库日敏娜 Eugenia Kuzmina
      乔丹·朗 Jordan Long
      杰森·王 Jason Wong
      可可·萨姆纳 Coco Sumner
      拉塞尔·巴洛格 Russell Balogh
      布鲁斯·钟 Bruce Chong
      塞尔哈特·梅汀 Serhat Metin
      杰森· 莱恩斯 Jason Lines
      奇迪·阿朱福 Chidi Ajufo
      莉莉·弗雷泽 Lily Frazer
      克里斯托弗·埃万格罗 Christopher Evangelou


◎标  签 犯罪 | 美国 | 2020 | 黑色幽默 | 动作 | 黑帮 | 电影 | 剧情

◎简  介

  本片讲述一个英国毒枭准备将他盈利丰厚的帝国卖给美国俄克拉荷马亿万富翁。麦康纳饰演这位欲将金盆洗手的毒枭,道克瑞饰演毒枭妻子。戈尔丁饰演一位越南黑帮。格兰特饰演一位拍到毒枭暗箱交易过程照片,欲用此来威胁毒枭的摄影师。法瑞尔的角色名为“Coach”,他是一位综合格斗训练师。
Video
ID : 1
Format : AVC
Format/Info : Advanced Video Codec
Format profile : [email protected]
Format settings : CABAC / 4 Ref Frames
Format settings, CABAC : Yes
Format settings, Reference frames : 4 frames
Codec ID : V_MPEG4/ISO/AVC
Duration : 1 h 53 min
Bit rate mode : Constant
Bit rate : 3 666 kb/s
Nominal bit rate : 6 000 kb/s
Width : 1 248 pixels
Height : 520 pixels
Display aspect ratio : 2.40:1
Frame rate mode : Constant
Frame rate : 23.976 (24000/1001/189150) FPS
Color space : YUV
Chroma subsampling : 4:2:0
Bit depth : 8 bits
Scan type : Progressive
Bits/(Pixel*Frame) : 0.236
Stream size : 2.90 GiB (85%)
Default : Yes
Forced : No
Color range : Limited
Color primaries : BT.709
Transfer characteristics : BT.709
Matrix coefficients : BT.709

Audio
ID : 2
Format : E-AC-3
Format/Info : Enhanced AC-3
Commercial name : Dolby Digital Plus
Codec ID : A_EAC3
Duration : 1 h 53 min
Bit rate mode : Constant
Bit rate : 640 kb/s
Channel(s) : 6 channels
Channel layout : L R C LFE Ls Rs
Sampling rate : 48.0 kHz
Frame rate : 31.250 FPS (1536 SPF)
Compression mode : Lossy
Stream size : 518 MiB (15%)
Language : English
Service kind : Complete Main
Default : Yes
Forced : No

Text #1
ID : 3
Format : UTF-8
Codec ID : S_TEXT/UTF8
Codec ID/Info : UTF-8 Plain Text
Duration : 1 h 47 min
Bit rate : 84 b/s
Count of elements : 1812
Stream size : 67.0 KiB (0%)
Language : English
Default : No
Forced : No

Text #2
ID : 4
Format : UTF-8
Codec ID : S_TEXT/UTF8
Codec ID/Info : UTF-8 Plain Text
Duration : 1 h 50 min
Bit rate : 94 b/s
Count of elements : 2088
Stream size : 76.8 KiB (0%)
Title : SDH
Language : English
Default : No
Forced : No

Menu
00:00:00.000 : en:Studio Logo / en:Studio Logo / en:Studio Logo
00:00:38.000 : en:Scene 2 / en:Scene 2 / en:Scene 2
00:01:00.000 : en:Opening Credits / en:Opening Credits / en:Opening Credits
00:01:19.000 : en:Scene 4 / en:Scene 4 / en:Scene 4
00:02:14.000 : en:Title Sequence / en:Title Sequence / en:Title Sequence
00:04:03.000 : en:Scene 6 / en:Scene 6 / en:Scene 6
00:13:19.000 : en:Scene 7 / en:Scene 7 / en:Scene 7
00:22:08.000 : en:Scene 8 / en:Scene 8 / en:Scene 8
00:28:52.000 : en:Scene 9 / en:Scene 9 / en:Scene 9
00:35:29.000 : en:Scene 10 / en:Scene 10 / en:Scene 10
00:39:20.000 : en:Scene 11 / en:Scene 11 / en:Scene 11
00:43:52.000 : en:Scene 12 / en:Scene 12 / en:Scene 12
00:55:51.000 : en:Scene 13 / en:Scene 13 / en:Scene 13
01:06:29.000 : en:Scene 14 / en:Scene 14 / en:Scene 14
01:11:48.000 : en:Scene 15 / en:Scene 15 / en:Scene 15
01:29:00.000 : en:Scene 16 / en:Scene 16 / en:Scene 16
01:38:51.000 : en:Scene 17 / en:Scene 17 / en:Scene 17
01:48:14.000 : en:End Credits / en:End Credits / en:End Credits

悠悠MP4_MP4电影下载_绅士们 The.Gentlemen.2019.720p.AMZN.WEBRip.DDP5.1.x264-TEPES 3.41GB悠悠MP4_MP4电影下载_绅士们 The.Gentlemen.2019.720p.AMZN.WEBRip.DDP5.1.x264-TEPES 3.41GB悠悠MP4_MP4电影下载_绅士们 The.Gentlemen.2019.720p.AMZN.WEBRip.DDP5.1.x264-TEPES 3.41GB


提示:如迅雷下载提示"任务出错"、"因版权无法下载",请尝试【迅雷5】
上传的附件:
最新回复 (0)
返回
本站所有资源均收集自互联网,没有提供影片资源存储, 也未参与录制、上传,若本站收录的资源无意侵犯了您的权益, 请联系邮箱:gogoimgs#gmail.com(#=@)