[2017] [欧美] [其他] [WEB-1080P] 特朗普:如何成为美国最招黑的政治家 Trumped.inside.the.Greatest.Political.Upset.of.All.Time.2017.1

uump4 2月前 262

帖子完整标题:特朗普:如何成为美国最招黑的政治家 Trumped.inside.the.Greatest.Political.Upset.of.All.Time.2017.1080p.AMZN.WEBRip.DDP5.1.x264-NTb 7.33GB


悠悠MP4_MP4电影下载_特朗普:如何成为美国最招黑的政治家 Trumped.inside.the.Greatest.Political.Upset.of.All.Time.2017.1

◎译  名 特朗普:如何成为美国最招黑的政治家
◎片  名 Trumped: Inside the Greatest Political Upset of All Time
◎年  代 2017
◎产  地 美国
◎类  别 纪录片
◎语  言 英语
◎上映日期 2017-01-27(圣丹斯电影节)
◎IMDb评分  6.3/10 from 635 users
◎IMDb链接  https://www.imdb.com/title/tt6408738
◎豆瓣评分 6.8/10 from 145 users
◎豆瓣链接 https://movie.douban.com/subject/26952287/
◎片  长 105分钟
◎导  演 Ted Bourne / Mary Robertson / Banks Tarver
◎主  演 唐纳德·特朗普 Donald Trump
       马克·霍尔珀林 Mark Halperin
       约翰·海勒曼 John Heilemann
       Mark McKinnon


◎标  签 纪录片 | 美国 | 特朗普 | 选举 | 政治 | 2017 | Documentary | 美国电影

◎简  介  

  继昨日金球奖梅姨炮轰特朗普后,圣丹斯电影节又宣布把一部讲述特朗普的纪录片《特朗普:如何成为美国最招黑的政治家》(Trumped: Inside The Greatest Political Upset of All Time,暂译)加入电影节展映片单。该片全程跟踪拍摄特朗普竞选过程,讲述了这位商业大亨如何成为美国“最招人讨厌的总统”。电影将于1月27日在圣丹斯电影节期间首映。

Video
ID                                       : 1
Format                                   : AVC
Format/Info                              : Advanced Video Codec
Format profile                           : [email protected]
Format settings                          : CABAC / 4 Ref Frames
Format settings, CABAC                   : Yes
Format settings, Reference frames        : 4 frames
Codec ID                                 : V_MPEG4/ISO/AVC
Duration                                 : 1 h 41 min
Bit rate mode                            : Variable
Bit rate                                 : 9 673 kb/s
Maximum bit rate                         : 15.0 Mb/s
Width                                    : 1 920 pixels
Height                                   : 1 080 pixels
Display aspect ratio                     : 16:9
Frame rate mode                          : Constant
Frame rate                               : 23.976 (24000/1001/189150) FPS
Color space                              : YUV
Chroma subsampling                       : 4:2:0
Bit depth                                : 8 bits
Scan type                                : Progressive
Bits/(Pixel*Frame)                       : 0.195
Stream size                              : 6.87 GiB (94%)
Default                                  : Yes
Forced                                   : No
Color range                              : Limited
Color primaries                          : BT.709
Transfer characteristics                 : BT.709
Matrix coefficients                      : BT.709

Audio
ID                                       : 2
Format                                   : E-AC-3
Format/Info                              : Enhanced AC-3
Commercial name                          : Dolby Digital Plus
Codec ID                                 : A_EAC3
Duration                                 : 1 h 41 min
Bit rate mode                            : Constant
Bit rate                                 : 640 kb/s
Channel(s)                               : 6 channels
Channel layout                           : L R C LFE Ls Rs
Sampling rate                            : 48.0 kHz
Frame rate                               : 31.250 FPS (1536 SPF)
Compression mode                         : Lossy
Stream size                              : 466 MiB (6%)
Language                                 : English
Service kind                             : Complete Main
Default                                  : Yes
Forced                                   : No

Text
ID                                       : 3
Format                                   : UTF-8
Codec ID                                 : S_TEXT/UTF8
Codec ID/Info                            : UTF-8 Plain Text
Duration                                 : 1 h 41 min
Bit rate                                 : 124 b/s
Count of elements                        : 2648
Stream size                              : 91.9 KiB (0%)
Language                                 : English
Default                                  : No
Forced                                   : No


悠悠MP4_MP4电影下载_特朗普:如何成为美国最招黑的政治家 Trumped.inside.the.Greatest.Political.Upset.of.All.Time.2017.1悠悠MP4_MP4电影下载_特朗普:如何成为美国最招黑的政治家 Trumped.inside.the.Greatest.Political.Upset.of.All.Time.2017.1悠悠MP4_MP4电影下载_特朗普:如何成为美国最招黑的政治家 Trumped.inside.the.Greatest.Political.Upset.of.All.Time.2017.1


提示:如迅雷下载提示"任务出错"、"因版权无法下载",请尝试【迅雷5】
上传的附件:
最新回复 (0)
返回
本站所有资源均收集自互联网,没有提供影片资源存储, 也未参与录制、上传,若本站收录的资源无意侵犯了您的权益, 请联系邮箱:gogoimgs#gmail.com(#=@)