[2019] [其他] [剧情] [4K-原盘] 皇后与瘦子/奎恩与斯里姆 Queen.and.Slim.2019.2160p.BluRay.REMUX.HEVC.DTS-HD.MA.TrueHD.7.1.At

uump4 1月前 131

帖子完整标题:皇后与瘦子/奎恩与斯里姆 Queen.and.Slim.2019.2160p.BluRay.REMUX.HEVC.DTS-HD.MA.TrueHD.7.1.Atmos-FGT 56.53GB


悠悠MP4_MP4电影下载_皇后与瘦子/奎恩与斯里姆 Queen.and.Slim.2019.2160p.BluRay.REMUX.HEVC.DTS-HD.MA.TrueHD.7.1.At

◎译  名 皇后与瘦子 / 奎恩与斯里姆
◎片  名 Queen & Slim
◎年  代 2019
◎产  地 加拿大 / 美国
◎类  别 剧情
◎语  言 英语
◎上映日期 2019-11-27(美国)
◎IMDb评分  7.0/10 from 8192 users
◎IMDb链接  https://www.imdb.com/title/tt8722346
◎豆瓣评分 6.9/10 from 996 users
◎豆瓣链接 https://movie.douban.com/subject/30279172/
◎片  长 132分钟
◎导  演 梅丽娜·马苏卡斯 Melina Matsoukas
◎编  剧 丽娜·维特 Lena Waithe / 詹姆斯·弗雷 James Frey
◎主  演 朱迪·特纳-史密斯 Jodie Turner-Smith
       丹尼尔·卡卢亚 Daniel Kaluuya
       茵蒂娅·摩尔 Indya Moore
       科洛·塞维尼 Chlo? Sevigny
       博基姆·伍德拜因 Bokeem Woodbine
       弗利 Flea
       斯特吉尔·辛普森 Sturgill Simpson
       本尼托·马丁内斯 Benito Martinez
       贾西·迪阿洛·温斯顿 Jahi Di'Allo Winston
       格拉伦·布莱恩特·班克斯 Gralen Bryant Banks
       梅兰妮·哈夫肯尼 Melanie Halfkenny
       凯伦·凯亚·利韦尔斯 Karen Kaia Livers
       罗伯特·沃克·布兰乔德 Robert Walker Branchaud
       安迪·迪伦 Andy Dylan
       索莱达·奥布莱恩 Soledad O'Brien
       盖尔·金 Gayle King
       罗曼·阿姆斯特朗 Roman Armstrong
       贾斯汀·贾木什 Justin Carmouche


◎标  签 美国 | 犯罪 | 黑人 | 公路 | 2019 | 剧情 | 社会 | 惊悚

◎简  介  

  丹尼尔·卡卢亚(《逃出绝命镇》《黑豹》)将主演环球新片《皇后与瘦子》(Queen & Slim),已定档2019年11月27日北美上映,明年1月开拍。该片是一部复杂的剧情片,讲述一对黑人男女“皇后”和“瘦子”第一次约会,开车被警察叫停。之后的发展跟《逃出绝命镇》就不一样了:两人因自我防卫杀死了那名警察,随后没有自首,而是一起亡命天涯。希望藉由这个爱情故事探索美国的社会和政治。女主角皇后正在选演员,计划用新面孔。
  《无为大师》《头号玩家》的丽娜·维斯编剧,她的《无为大师》导演搭档Melina Matsoukas执导,这也是后者首次导演电影。剧本是基于《百万碎片》作者、争议作家詹姆斯·弗雷写的一版剧本进行改编,新电影公司Makeready注资。

◎获奖情况  

  第72届美国导演工会奖(2020)
  最佳新人导演奖(提名) 梅丽娜·马苏卡斯

  第22届美国服装设计工会奖(2020)
  现代电影最佳服装设计(提名) Shiona Turini

  第91届美国国家评论协会奖(2019)
  最佳导演处女作 梅丽娜·马苏卡斯

  第23届美国在线影评人协会奖(2020)
  最佳新导演(提名) 梅丽娜·马苏卡斯

Video
ID                                       : 1
Format                                   : HEVC
Format/Info                              : High Efficiency Video Coding
Format profile                           : Main [email protected]@High
HDR format                               : SMPTE ST 2086, HDR10 compatible
Codec ID                                 : V_MPEGH/ISO/HEVC
Duration                                 : 2 h 12 min
Bit rate                                 : 52.5 Mb/s
Width                                    : 3 840 pixels
Height                                   : 2 160 pixels
Display aspect ratio                     : 16:9
Frame rate mode                          : Constant
Frame rate                               : 23.976 (24000/1001) FPS
Color space                              : YUV
Chroma subsampling                       : 4:2:0 (Type 2)
Bit depth                                : 10 bits
Bits/(Pixel*Frame)                       : 0.264
Stream size                              : 48.6 GiB (86%)
Title                                    : Queen.and.Slim.2019.2160p.BluRay.REMUX.HEVC.DTS-HD.MA.TrueHD.7.1.Atmos-FGT
Language                                 : English
Default                                  : No
Forced                                   : No
Color range                              : Limited
Color primaries                          : BT.2020
Transfer characteristics                 : PQ
Matrix coefficients                      : BT.2020 non-constant
Mastering display color primaries        : Display P3
Mastering display luminance              : min: 0.0050 cd/m2, max: 1000 cd/m2
Maximum Content Light Level              : 614 cd/m2
Maximum Frame-Average Light Level        : 67 cd/m2

Audio #1
ID                                       : 2
Format                                   : MLP FBA 16-ch
Format/Info                              : Meridian Lossless Packing FBA with 16-channel presentation
Commercial name                          : Dolby TrueHD with Dolby Atmos
Codec ID                                 : A_TRUEHD
Duration                                 : 2 h 12 min
Bit rate mode                            : Variable
Bit rate                                 : 3 466 kb/s
Maximum bit rate                         : 6 375 kb/s
Channel(s)                               : 8 channels
Channel layout                           : L R C LFE Ls Rs Lb Rb
Sampling rate                            : 48.0 kHz
Frame rate                               : 1 200.000 FPS (40 SPF)
Compression mode                         : Lossless
Stream size                              : 3.21 GiB (6%)
Title                                    : Queen.and.Slim.2019.2160p.BluRay.REMUX.HEVC.DTS-HD.MA.TrueHD.7.1.Atmos-FGT
Language                                 : English
Default                                  : Yes
Forced                                   : No
Number of dynamic objects                : 11
Bed channel count                        : 1 channel
Bed channel configuration                : LFE

Audio #2
ID                                       : 3
Format                                   : DTS XLL
Format/Info                              : Digital Theater Systems
Commercial name                          : DTS-HD Master Audio
Codec ID                                 : A_DTS
Duration                                 : 2 h 12 min
Bit rate mode                            : Variable
Bit rate                                 : 3 757 kb/s
Channel(s)                               : 8 channels
Channel layout                           : C L R LFE Lb Rb Lss Rss
Sampling rate                            : 48.0 kHz
Frame rate                               : 93.750 FPS (512 SPF)
Bit depth                                : 24 bits
Compression mode                         : Lossless
Stream size                              : 3.47 GiB (6%)
Title                                    : Queen.and.Slim.2019.2160p.BluRay.REMUX.HEVC.DTS-HD.MA.TrueHD.7.1.Atmos-FGT
Language                                 : English
Default                                  : No
Forced                                   : No

Audio #3
ID                                       : 4
Format                                   : AC-3
Format/Info                              : Audio Coding 3
Commercial name                          : Dolby Digital
Codec ID                                 : A_AC3
Duration                                 : 2 h 12 min
Bit rate mode                            : Constant
Bit rate                                 : 448 kb/s
Channel(s)                               : 6 channels
Channel layout                           : L R C LFE Ls Rs
Sampling rate                            : 48.0 kHz
Frame rate                               : 31.250 FPS (1536 SPF)
Bit depth                                : 16 bits
Compression mode                         : Lossy
Stream size                              : 424 MiB (1%)
Title                                    : Queen.and.Slim.2019.2160p.BluRay.REMUX.HEVC.DTS-HD.MA.TrueHD.7.1.Atmos-FGT
Language                                 : English
Service kind                             : Complete Main
Default                                  : No
Forced                                   : No

Audio #4
ID                                       : 5
Format                                   : AC-3
Format/Info                              : Audio Coding 3
Commercial name                          : Dolby Digital
Codec ID                                 : A_AC3
Duration                                 : 2 h 12 min
Bit rate mode                            : Constant
Bit rate                                 : 640 kb/s
Channel(s)                               : 6 channels
Channel layout                           : L R C LFE Ls Rs
Sampling rate                            : 48.0 kHz
Frame rate                               : 31.250 FPS (1536 SPF)
Bit depth                                : 16 bits
Compression mode                         : Lossy
Stream size                              : 606 MiB (1%)
Title                                    : Queen.and.Slim.2019.2160p.BluRay.REMUX.HEVC.DTS-HD.MA.TrueHD.7.1.Atmos-FGT
Language                                 : Spanish
Service kind                             : Complete Main
Default                                  : No
Forced                                   : No

Audio #5
ID                                       : 6
Format                                   : AC-3
Format/Info                              : Audio Coding 3
Commercial name                          : Dolby Digital
Codec ID                                 : A_AC3
Duration                                 : 2 h 12 min
Bit rate mode                            : Constant
Bit rate                                 : 192 kb/s
Channel(s)                               : 2 channels
Channel layout                           : L R
Sampling rate                            : 48.0 kHz
Frame rate                               : 31.250 FPS (1536 SPF)
Bit depth                                : 16 bits
Compression mode                         : Lossy
Stream size                              : 182 MiB (0%)
Title                                    : Queen.and.Slim.2019.2160p.BluRay.REMUX.HEVC.DTS-HD.MA.TrueHD.7.1.Atmos-FGT
Language                                 : English
Service kind                             : Complete Main
Default                                  : No
Forced                                   : No

Text #1
ID                                       : 7
Format                                   : UTF-8
Codec ID                                 : S_TEXT/UTF8
Codec ID/Info                            : UTF-8 Plain Text
Duration                                 : 2 h 10 min
Bit rate                                 : 53 b/s
Count of elements                        : 1594
Stream size                              : 50.9 KiB (0%)
Title                                    : English-SRT
Language                                 : English
Default                                  : Yes
Forced                                   : No

Text #2
ID                                       : 8
Format                                   : PGS
Muxing mode                              : zlib
Codec ID                                 : S_HDMV/PGS
Codec ID/Info                            : Picture based subtitle format used on BDs/HD-DVDs
Duration                                 : 2 h 10 min
Bit rate                                 : 40.0 kb/s
Count of elements                        : 3660
Stream size                              : 37.4 MiB (0%)
Title                                    : English-PGS
Language                                 : English
Default                                  : No
Forced                                   : No

Text #3
ID                                       : 9
Format                                   : PGS
Muxing mode                              : zlib
Codec ID                                 : S_HDMV/PGS
Codec ID/Info                            : Picture based subtitle format used on BDs/HD-DVDs
Duration                                 : 2 h 11 min
Bit rate                                 : 27.3 kb/s
Count of elements                        : 2790
Stream size                              : 25.6 MiB (0%)
Title                                    : Spanish-PGS
Language                                 : Spanish
Default                                  : No
Forced                                   : No

Text #4
ID                                       : 10
Format                                   : PGS
Muxing mode                              : zlib
Codec ID                                 : S_HDMV/PGS
Codec ID/Info                            : Picture based subtitle format used on BDs/HD-DVDs
Duration                                 : 2 h 6 min
Bit rate                                 : 272 b/s
Count of elements                        : 26
Stream size                              : 253 KiB (0%)
Title                                    : Spanish-FORCED-PGS
Language                                 : Spanish
Default                                  : No
Forced                                   : No

Menu
00:00:00.000                             : en:Chapter 01
00:05:46.763                             : en:Chapter 02
00:14:20.359                             : en:Chapter 03
00:18:58.512                             : en:Chapter 04
00:24:56.661                             : en:Chapter 05
00:31:21.880                             : en:Chapter 06
00:36:06.038                             : en:Chapter 07
00:41:30.821                             : en:Chapter 08
00:50:09.923                             : en:Chapter 09
00:58:41.893                             : en:Chapter 10
01:05:56.702                             : en:Chapter 11
01:11:14.520                             : en:Chapter 12
01:16:44.725                             : en:Chapter 13
01:23:59.826                             : en:Chapter 14
01:28:45.611                             : en:Chapter 15
01:34:28.537                             : en:Chapter 16
01:42:10.290                             : en:Chapter 17
01:50:00.468                             : en:Chapter 18
01:56:02.246                             : en:Chapter 19
02:04:41.599                             : en:Chapter 20


悠悠MP4_MP4电影下载_皇后与瘦子/奎恩与斯里姆 Queen.and.Slim.2019.2160p.BluRay.REMUX.HEVC.DTS-HD.MA.TrueHD.7.1.At悠悠MP4_MP4电影下载_皇后与瘦子/奎恩与斯里姆 Queen.and.Slim.2019.2160p.BluRay.REMUX.HEVC.DTS-HD.MA.TrueHD.7.1.At悠悠MP4_MP4电影下载_皇后与瘦子/奎恩与斯里姆 Queen.and.Slim.2019.2160p.BluRay.REMUX.HEVC.DTS-HD.MA.TrueHD.7.1.At


提示:如迅雷下载提示"任务出错"、"因版权无法下载",请尝试【迅雷5】
上传的附件:
最新回复 (0)
返回
本站所有资源均收集自互联网,没有提供影片资源存储, 也未参与录制、上传,若本站收录的资源无意侵犯了您的权益, 请联系邮箱:gogoimgs#gmail.com(#=@)