[2009] [欧美] [剧情] [BD-4K] 飞屋环游记/冲天救兵 Up.2009.2160p.BluRay.x265.10bit.SDR.DTS-HD.MA.TrueHD.7.1.Atmos-SWTYBL

uump4 1月前 149

帖子完整标题:飞屋环游记/冲天救兵 Up.2009.2160p.BluRay.x265.10bit.SDR.DTS-HD.MA.TrueHD.7.1.Atmos-SWTYBLZ 22.68GB


悠悠MP4_MP4电影下载_飞屋环游记/冲天救兵 Up.2009.2160p.BluRay.x265.10bit.SDR.DTS-HD.MA.TrueHD.7.1.Atmos-SWTYBL

◎译  名 飞屋环游记 / 冲天救兵(港) / 天外奇迹(台) / 飞屋历险记
◎片  名 Up
◎年  代 2009
◎产  地 美国
◎类  别 剧情 / 喜剧 / 动画 / 冒险
◎语  言 英语
◎上映日期 2009-05-13(戛纳电影节) / 2009-05-29(美国) / 2009-08-04(中国大陆)
◎IMDb评分  8.2/10 from 883364 users
◎IMDb链接  https://www.imdb.com/title/tt1049413
◎豆瓣评分 9.0/10 from 897311 users
◎豆瓣链接 https://movie.douban.com/subject/2129039/
◎片  长 96分钟
◎导  演 彼特·道格特 Pete Docter / 鲍勃·彼德森 Bob Peterson
◎编  剧 彼特·道格特 Pete Docter / 鲍勃·彼德森 Bob Peterson / 汤姆·麦卡锡 Tom McCarthy
◎主  演 爱德华·阿斯纳 Edward Asner
       克里斯托弗·普卢默 Christopher Plummer
       乔丹·长井 Jordan Nagai
       鲍勃·彼德森 Bob Peterson
       戴尔里·林多 Delroy Lindo
       杰罗姆·兰福特 Jerome Ranft
       约翰·拉岑贝格 John Ratzenberger
       大卫·卡耶 David Kaye
       艾丽·道克特 Elie Docter
       杰里米·利里 Jeremy Leary
       米凯·麦高万 Mickie McGowan
       丹尼·曼恩 Danny Mann
       唐纳德·富利洛夫 Donald Fullilove
       杰斯·哈梅尔 Jess Harnell
       乔什·库雷 Josh Cooley
       彼特·道格特 Pete Docter


◎标  签 动画 | 梦想 | 美国 | 冒险 | 爱情 | pixar | 温情 | Disney

◎简  介  

  小男孩卡尔(Carl Fredricksen)怀揣着对于冒险的热爱偶遇假小子艾丽(Ellie),而艾丽把整个屋子当成一艘大飞船游戏居然使他对这个女孩子有些着迷,相同的爱好最终使两个人成为了一生的爱侣。
  他们有一个梦想,那就是有朝一日要去南美洲的“仙境瀑布”探险,但直到艾丽去世,这个梦想也未能实现。终于有一天,曾经专卖气球的老人卡尔居然用五颜六色的气球拽着他的房子飞上了天空,他决定要去实现他们未曾实现的梦想。令卡尔始料不及的是,门廊居然搭上了一个自称是“荒野开拓者”的小男孩小罗(Russell),小罗的喋喋不休让卡尔对这个小胖墩格外讨厌。
  一老一少在飞行中经过了千难万险终于看到了传说中的“仙境瀑布”,在相处过程中卡尔发现小罗其实是个惹人怜爱的孩子。在步行穿越一座森林时,他们遇到了不会飞的大鸟凯文(Kevin)和一只会说话的狗狗逗逗(Dug),让老人惊讶的是他们还遇到了他少年的崇拜偶像——探险家查尔斯·蒙兹(Charles Muntz),而且他发现蒙兹居然是一个为达目的不择手段的坏人。这时,老人离自己的梦想之地只有一步之遥……
  本片荣获第82届奥斯卡最佳动画长片、最佳配乐2项大奖。

◎获奖情况  

  第82届奥斯卡金像奖(2010)
  最佳影片(提名) 乔纳斯·里维拉
  最佳原创剧本(提名) 汤姆·麦卡锡 / 彼特·道格特
  最佳动画长片 彼特·道格特
  最佳音效剪辑(提名) 迈克尔·席维斯 / Tom Myers
  最佳原创配乐 迈克·吉亚奇诺

  第66届威尼斯电影节(2009)
  未来电影数字奖-特别提及 彼特·道格特

  第67届金球奖(2010)
  电影类 最佳动画长片
  电影类 最佳原创配乐 迈克·吉亚奇诺

  第37届动画安妮奖(2010)
  最佳动画长片
  最佳导演 彼特·道格特
  最佳编剧(提名) 汤姆·麦卡锡 / 彼特·道格特 / 鲍勃·彼德森
  最佳配乐(提名) 迈克·吉亚奇诺
  最佳分镜(提名) 罗纳尔多·德尔·卡门 / 彼得·孙
  最佳动画角色(提名)
  最佳角色设计(提名) Daniel Lopez Munoz / Daniel Lopez Munoz
  最佳动画效果(提名) Eric Froemling

  第75届纽约影评人协会奖(2009)
  最佳动画片(提名)

  第10届美国电影学会奖(2009)
  年度佳片

  第8届华盛顿影评人协会奖(2009)
  最佳影片(提名)
  最佳原创剧本(提名) 彼特·道格特 / 鲍勃·彼德森
  最佳动画片

  第14届圣地亚哥影评人协会奖(2009)
  最佳动画片
  最佳配乐(提名) 迈克·吉亚奇诺

  第22届芝加哥影评人协会奖(2009)
  最佳原创剧本(提名) 鲍勃·彼德森
  最佳动画片
  最佳原创配乐 迈克·吉亚奇诺

  第43届堪萨斯影评人协会奖(2010)
  最佳动画片

  第9届凤凰城影评人协会奖(2009)
  最佳原创剧本 彼特·道格特 / 鲍勃·彼德森
  最佳原创配乐 迈克·吉亚奇诺
  最佳动画片

  第18届东南影评人协会奖(2009)
  最佳影片(提名)
  最佳动画片

  第11届美国青少年选择奖(2009)
  最佳暑期喜剧片

Video
ID                                       : 1
Format                                   : HEVC
Format/Info                              : High Efficiency Video Coding
Format profile                           : Main [email protected]@High
Codec ID                                 : V_MPEGH/ISO/HEVC
Duration                                 : 1 h 36 min
Bit rate                                 : 22.0 Mb/s
Width                                    : 3 840 pixels
Height                                   : 2 160 pixels
Display aspect ratio                     : 16:9
Frame rate mode                          : Constant
Frame rate                               : 23.976 (24000/1001) FPS
Color space                              : YUV
Chroma subsampling                       : 4:2:0
Bit depth                                : 10 bits
Bits/(Pixel*Frame)                       : 0.111
Stream size                              : 14.8 GiB (65%)
Title                                    : Up.2009.2160p.BluRay.x265.10bit.SDR.DTS-HD.MA.TrueHD.7.1.Atmos-SWTYBLZ
Writing library                          : x265 3.0ed72af837053:[Windows][GCC 8.2.0][64 bit] 10bit
Encoding settings                        : cpuid=1111039 / frame-threads=6 / numa-pools=40 / wpp / no-pmode / no-pme / no-psnr / no-ssim / log-level=2 / input-csp=1 / input-res=3840x2160 / interlace=0 / total-frames=138291 / level-idc=51 / high-tier=1 / uhd-bd=0 / ref=3 / no-allow-non-conformance / repeat-headers / annexb / aud / hrd / info / hash=0 / no-temporal-layers / no-open-gop / min-keyint=1 / keyint=24 / gop-lookahead=0 / bframes=6 / b-adapt=2 / b-pyramid / bframe-bias=0 / rc-lookahead=25 / lookahead-slices=4 / scenecut=40 / radl=0 / no-splice / no-intra-refresh / ctu=64 / min-cu-size=8 / no-rect / no-amp / max-tu-size=32 / tu-inter-depth=1 / tu-intra-depth=1 / limit-tu=0 / rdoq-level=0 / dynamic-rd=0.00 / no-ssim-rd / signhide / no-tskip / nr-intra=0 / nr-inter=0 / no-constrained-intra / strong-intra-smoothing / max-merge=2 / limit-refs=3 / no-limit-modes / me=1 / subme=2 / merange=57 / temporal-mvp / weightp / no-weightb / no-analyze-src-pics / deblock=1:1 / no-sao / no-sao-non-deblock / rd=3 / no-early-skip / rskip / no-fast-intra / no-tskip-fast / no-cu-lossless / no-b-intra / no-splitrd-skip / rdpenalty=0 / psy-rd=0.40 / psy-rdoq=0.00 / no-rd-refine / no-lossless / cbqpoffs=0 / crqpoffs=0 / rc=crf / crf=14.0 / qcomp=0.60 / qpstep=4 / stats-write=0 / stats-read=0 / vbv-maxrate=160000 / vbv-bufsize=160000 / vbv-init=0.9 / crf-max=0.0 / crf-min=0.0 / ipratio=1.40 / pbratio=1.30 / aq-mode=1 / aq-strength=0.40 / cutree / zone-count=0 / no-strict-cbr / qg-size=32 / no-rc-grain / qpmax=69 / qpmin=0 / no-const-vbv / sar=1 / overscan=0 / videoformat=5 / range=0 / colorprim=2 / transfer=2 / colormatrix=2 / chromaloc=0 / display-window=0 / max-cll=0,0 / min-luma=0 / max-luma=1023 / log2-max-poc-lsb=8 / vui-timing-info / vui-hrd-info / slices=1 / opt-qp-pps / opt-ref-list-length-pps / no-multi-pass-opt-rps / scenecut-bias=0.05 / no-opt-cu-delta-qp / no-aq-motion / no-hdr / no-hdr-opt / no-dhdr10-opt / no-idr-recovery-sei / analysis-reuse-level=5 / scale-factor=0 / refine-intra=0 / refine-inter=0 / refine-mv=0 / refine-ctu-distortion=0 / no-limit-sao / ctu-info=0 / no-lowpass-dct / refine-analysis-type=0 / copy-pic=1 / max-ausize-factor=1.0 / no-dynamic-refine / no-single-sei / no-hevc-aq / qp-adaptation-range=1.00
Default                                  : Yes
Forced                                   : No

Audio #1
ID                                       : 2
Format                                   : MLP FBA 16-ch
Format/Info                              : Meridian Lossless Packing FBA with 16-channel presentation
Commercial name                          : Dolby TrueHD with Dolby Atmos
Codec ID                                 : A_TRUEHD
Duration                                 : 1 h 36 min
Bit rate mode                            : Variable
Bit rate                                 : 6 844 kb/s
Maximum bit rate                         : 8 307 kb/s
Channel(s)                               : 8 channels
Channel layout                           : L R C LFE Ls Rs Lb Rb
Sampling rate                            : 48.0 kHz
Frame rate                               : 1 200.000 FPS (40 SPF)
Compression mode                         : Lossless
Stream size                              : 4.60 GiB (20%)
Title                                    : Up.2009.2160p.BluRay.x265.10bit.SDR.DTS-HD.MA.TrueHD.7.1.Atmos-SWTYBLZ
Language                                 : English
Default                                  : Yes
Forced                                   : No
Number of dynamic objects                : 13
Bed channel count                        : 1 channel
Bed channel configuration                : LFE

Audio #2
ID                                       : 3
Format                                   : DTS XLL
Format/Info                              : Digital Theater Systems
Commercial name                          : DTS-HD Master Audio
Codec ID                                 : A_DTS
Duration                                 : 1 h 36 min
Bit rate mode                            : Variable
Bit rate                                 : 4 001 kb/s
Channel(s)                               : 6 channels
Channel layout                           : C L R Ls Rs LFE
Sampling rate                            : 48.0 kHz
Frame rate                               : 93.750 FPS (512 SPF)
Bit depth                                : 24 bits
Compression mode                         : Lossless
Stream size                              : 2.69 GiB (12%)
Title                                    : Up.2009.2160p.BluRay.x265.10bit.SDR.DTS-HD.MA.TrueHD.7.1.Atmos-SWTYBLZ
Language                                 : English
Default                                  : No
Forced                                   : No

Audio #3
ID                                       : 4
Format                                   : AC-3
Format/Info                              : Audio Coding 3
Commercial name                          : Dolby Digital
Codec ID                                 : A_AC3
Duration                                 : 1 h 36 min
Bit rate mode                            : Constant
Bit rate                                 : 640 kb/s
Channel(s)                               : 6 channels
Channel layout                           : L R C LFE Ls Rs
Sampling rate                            : 48.0 kHz
Frame rate                               : 31.250 FPS (1536 SPF)
Bit depth                                : 16 bits
Compression mode                         : Lossy
Stream size                              : 440 MiB (2%)
Title                                    : Up.2009.2160p.BluRay.x265.10bit.SDR.DTS-HD.MA.TrueHD.7.1.Atmos-SWTYBLZ
Language                                 : English
Service kind                             : Complete Main
Default                                  : No
Forced                                   : No

Text #1
ID                                       : 5
Format                                   : UTF-8
Codec ID                                 : S_TEXT/UTF8
Codec ID/Info                            : UTF-8 Plain Text
Duration                                 : 1 h 34 min
Bit rate                                 : 44 b/s
Count of elements                        : 908
Stream size                              : 31.2 KiB (0%)
Title                                    : English-SRT
Language                                 : English
Default                                  : Yes
Forced                                   : No

Text #2
ID                                       : 6
Format                                   : PGS
Muxing mode                              : zlib
Codec ID                                 : S_HDMV/PGS
Codec ID/Info                            : Picture based subtitle format used on BDs/HD-DVDs
Duration                                 : 1 h 35 min
Bit rate                                 : 33.7 kb/s
Count of elements                        : 2400
Stream size                              : 23.1 MiB (0%)
Title                                    : English-PGS
Language                                 : English
Default                                  : No
Forced                                   : No

Text #3
ID                                       : 7
Format                                   : PGS
Muxing mode                              : zlib
Codec ID                                 : S_HDMV/PGS
Codec ID/Info                            : Picture based subtitle format used on BDs/HD-DVDs
Duration                                 : 1 h 35 min
Bit rate                                 : 25.8 kb/s
Count of elements                        : 1714
Stream size                              : 17.7 MiB (0%)
Title                                    : French-PGS
Language                                 : French
Default                                  : No
Forced                                   : No

Text #4
ID                                       : 8
Format                                   : PGS
Muxing mode                              : zlib
Codec ID                                 : S_HDMV/PGS
Codec ID/Info                            : Picture based subtitle format used on BDs/HD-DVDs
Duration                                 : 1 h 35 min
Bit rate                                 : 25.6 kb/s
Count of elements                        : 1716
Stream size                              : 17.5 MiB (0%)
Title                                    : Spanish-PGS
Language                                 : Spanish
Default                                  : No
Forced                                   : No

Menu
00:00:00.000                             : en:Chapter 01
00:02:39.868                             : en:Chapter 02
00:07:14.475                             : en:Chapter 03
00:11:38.155                             : en:Chapter 04
00:13:34.146                             : en:Chapter 05
00:15:22.421                             : en:Chapter 06
00:17:36.221                             : en:Chapter 07
00:20:25.807                             : en:Chapter 08
00:24:31.678                             : en:Chapter 09
00:26:24.457                             : en:Chapter 10
00:28:03.223                             : en:Chapter 11
00:29:40.820                             : en:Chapter 12
00:33:20.832                             : en:Chapter 13
00:34:20.975                             : en:Chapter 14
00:35:15.154                             : en:Chapter 15
00:39:50.179                             : en:Chapter 16
00:42:35.511                             : en:Chapter 17
00:44:41.845                             : en:Chapter 18
00:46:17.900                             : en:Chapter 19
00:49:19.790                             : en:Chapter 20
00:52:21.596                             : en:Chapter 21
00:55:24.654                             : en:Chapter 22
01:00:34.213                             : en:Chapter 23
01:04:19.856                             : en:Chapter 24
01:06:14.929                             : en:Chapter 25
01:08:58.676                             : en:Chapter 26
01:10:21.008                             : en:Chapter 27
01:13:35.994                             : en:Chapter 28
01:15:24.937                             : en:Chapter 29
01:17:53.085                             : en:Chapter 30
01:19:46.531                             : en:Chapter 31
01:21:54.534                             : en:Chapter 32
01:23:23.623                             : en:Chapter 33
01:26:03.324                             : en:Chapter 34
01:29:03.004                             : en:Chapter 35


悠悠MP4_MP4电影下载_飞屋环游记/冲天救兵 Up.2009.2160p.BluRay.x265.10bit.SDR.DTS-HD.MA.TrueHD.7.1.Atmos-SWTYBL悠悠MP4_MP4电影下载_飞屋环游记/冲天救兵 Up.2009.2160p.BluRay.x265.10bit.SDR.DTS-HD.MA.TrueHD.7.1.Atmos-SWTYBL悠悠MP4_MP4电影下载_飞屋环游记/冲天救兵 Up.2009.2160p.BluRay.x265.10bit.SDR.DTS-HD.MA.TrueHD.7.1.Atmos-SWTYBL悠悠MP4_MP4电影下载_飞屋环游记/冲天救兵 Up.2009.2160p.BluRay.x265.10bit.SDR.DTS-HD.MA.TrueHD.7.1.Atmos-SWTYBL悠悠MP4_MP4电影下载_飞屋环游记/冲天救兵 Up.2009.2160p.BluRay.x265.10bit.SDR.DTS-HD.MA.TrueHD.7.1.Atmos-SWTYBL悠悠MP4_MP4电影下载_飞屋环游记/冲天救兵 Up.2009.2160p.BluRay.x265.10bit.SDR.DTS-HD.MA.TrueHD.7.1.Atmos-SWTYBL


提示:如迅雷下载提示"任务出错"、"因版权无法下载",请尝试【迅雷5】
上传的附件:
最新回复 (0)
返回
本站所有资源均收集自互联网,没有提供影片资源存储, 也未参与录制、上传,若本站收录的资源无意侵犯了您的权益, 请联系邮箱:gogoimgs#gmail.com(#=@)