[2008] [欧美] [科幻] [4K-原盘] 机器人总动员 WALL-E.2008.2160p.BluRay.REMUX.HEVC.DTS-HD.MA.TrueHD.7.1.Atmos-FGT 38.40G

uump4 2月前 217

帖子完整标题:机器人总动员 WALL-E.2008.2160p.BluRay.REMUX.HEVC.DTS-HD.MA.TrueHD.7.1.Atmos-FGT 38.40GB


悠悠MP4_MP4电影下载_机器人总动员 WALL-E.2008.2160p.BluRay.REMUX.HEVC.DTS-HD.MA.TrueHD.7.1.Atmos-FGT 38.40G

◎译  名 机器人总动员 / walle / 地球废品分装员 / 太空奇兵·威E(港) / 星际总动员 / 机器人瓦力 / 瓦力(台)
◎片  名 WALL·E
◎年  代 2008
◎产  地 美国
◎类  别 科幻 / 动画 / 冒险
◎语  言 英语
◎上映日期 2008-06-27(美国)
◎IMDb评分  8.4/10 from 945831 users
◎IMDb链接  https://www.imdb.com/title/tt0910970
◎豆瓣评分 9.3/10 from 912055 users
◎豆瓣链接 https://movie.douban.com/subject/2131459/
◎片  长 98分钟
◎导  演 安德鲁·斯坦顿 Andrew Stanton
◎编  剧 安德鲁·斯坦顿 Andrew Stanton / 吉姆·里尔顿 Jim Reardon / 彼特·道格特 Pete Docter
◎主  演 本·贝尔特 Ben Burtt
       艾丽莎·奈特 Elissa Knight
       杰夫·格尔林 Jeff Garlin
       佛莱德·威拉特 Fred Willard
       西格妮·韦弗 Sigourney Weaver
       MacInTalk
       约翰·拉岑贝格 John Ratzenberger
       凯茜·纳基麦 Kathy Najimy
       泰迪·牛顿 Teddy Newton
       鲍伯·伯根 Bob Bergen
       洛丽·理查德森 Lori Richardson
       吉姆·瓦德 Jim Ward
       彼特·道格特 Pete Docter
       安德鲁·斯坦顿 Andrew Stanton
       杰夫·皮金  Jeff Pidgeon
       约翰·齐甘 John Cygan
       米凯·麦高万 Mickie McGowan
       雪莉·琳恩 Sherry Lynn
       克莱特·惠特克 Colette Whitaker
       唐纳德·富利洛夫 Donald Fullilove
       罗里·艾伦 Lori Alan
       杰斯·哈梅尔 Jess Harnell
       拉瑞恩·纽曼 Laraine Newman
       扬·拉布森 Jan Rabson
       保罗·伊丁 Paul Eiding


◎标  签 动画 | 科幻 | 感人 | 美国 | 皮克斯 | 爱情 | 环保 | 迪斯尼

◎简  介  

  公元2805年,人类文明高度发展,却因污染和生活垃圾大量增加使得地球不再适于人类居住。地球人被迫乘坐飞船离开故乡,进行一次漫长无边的宇宙之旅。临行前他们委托Buynlarge的公司对地球垃圾进行清理,该公司开发了名为WALL·E(Waste Allocation Loa d Lifters – Earth 地球废品分装员)的机器人担当此重任。
  这些机器人按照程序日复一日、年复一年辛勤工作,但随着时间的流逝和恶劣环境的侵蚀,WALL·E们接连损坏、停止运动。最后只有一个仍在进行这项似乎永无止境的工作。经历了漫长的岁月,它开始拥有了自己的意识。它喜欢将收集来的宝贝小心翼翼藏起,喜欢收工后看看几百年前的歌舞片,此外还有一只蟑螂朋友作伴。直到有一天,一艘来自宇宙的飞船打破了它一成不变的生活……
  本片荣获2009年第81届奥斯卡最佳动画长片奖。

◎获奖情况  

  第81届奥斯卡金像奖(2009)
  最佳原创剧本(提名) 彼特·道格特 / 安德鲁·斯坦顿 / 吉姆·里尔顿
  最佳动画长片 安德鲁·斯坦顿
  最佳混音(提名) 本·贝尔特 / Tom Myers / 迈克尔·斯曼内科
  最佳音效剪辑(提名) 本·贝尔特 / 马修·伍德
  最佳原创配乐(提名) 托马斯·纽曼
  最佳原创歌曲(提名) 彼特·加布埃尔 / 托马斯·纽曼

  第66届金球奖(2009)
  电影类 最佳动画长片
  电影类 最佳原创歌曲(提名) 彼特·加布埃尔 / 托马斯·纽曼

  第36届动画安妮奖(2009)
  最佳动画长片(提名)
  最佳导演(提名) 安德鲁·斯坦顿
  最佳配音(提名) 本·贝尔特
  最佳分镜(提名) 罗纳尔多·德尔·卡门
  最佳艺术指导(提名) 拉夫·埃格尔斯顿
  最佳动画角色(提名) Victor Navone
  最佳动画效果(提名) Enrique Vila

  第9届美国电影学会奖(2008)
  年度佳片

Video
ID                                       : 1
Format                                   : HEVC
Format/Info                              : High Efficiency Video Coding
Format profile                           : Main [email protected]@High
HDR format                               : SMPTE ST 2086, HDR10 compatible
Codec ID                                 : V_MPEGH/ISO/HEVC
Duration                                 : 1 h 38 min
Bit rate                                 : 41.3 Mb/s
Width                                    : 3 840 pixels
Height                                   : 2 160 pixels
Display aspect ratio                     : 16:9
Frame rate mode                          : Constant
Frame rate                               : 23.976 (24000/1001) FPS
Color space                              : YUV
Chroma subsampling                       : 4:2:0 (Type 2)
Bit depth                                : 10 bits
Bits/(Pixel*Frame)                       : 0.208
Stream size                              : 28.3 GiB (74%)
Title                                    : WALL-E.2008.2160p.BluRay.REMUX.HEVC.DTS-HD.MA.TrueHD.7.1.Atmos-FGT
Writing library                          : ATEME Titan File 3.9.0 (4.9.0.0)        
Language                                 : English
Default                                  : No
Forced                                   : No
Color range                              : Limited
Color primaries                          : BT.2020
Transfer characteristics                 : PQ
Matrix coefficients                      : BT.2020 non-constant
Mastering display color primaries        : Display P3
Mastering display luminance              : min: 0.0000 cd/m2, max: 1000 cd/m2

Audio #1
ID                                       : 2
Format                                   : MLP FBA 16-ch
Format/Info                              : Meridian Lossless Packing FBA with 16-channel presentation
Commercial name                          : Dolby TrueHD with Dolby Atmos
Codec ID                                 : A_TRUEHD
Duration                                 : 1 h 38 min
Bit rate mode                            : Variable
Bit rate                                 : 7 244 kb/s
Maximum bit rate                         : 8 217 kb/s
Channel(s)                               : 8 channels
Channel layout                           : L R C LFE Ls Rs Lb Rb
Sampling rate                            : 48.0 kHz
Frame rate                               : 1 200.000 FPS (40 SPF)
Compression mode                         : Lossless
Stream size                              : 4.97 GiB (13%)
Title                                    : WALL-E.2008.2160p.BluRay.REMUX.HEVC.DTS-HD.MA.TrueHD.7.1.Atmos-FGT
Language                                 : English
Default                                  : Yes
Forced                                   : No
Number of dynamic objects                : 13
Bed channel count                        : 1 channel
Bed channel configuration                : LFE

Audio #2
ID                                       : 3
Format                                   : AC-3
Format/Info                              : Audio Coding 3
Commercial name                          : Dolby Digital
Codec ID                                 : A_AC3
Duration                                 : 1 h 38 min
Bit rate mode                            : Constant
Bit rate                                 : 640 kb/s
Channel(s)                               : 6 channels
Channel layout                           : L R C LFE Ls Rs
Sampling rate                            : 48.0 kHz
Frame rate                               : 31.250 FPS (1536 SPF)
Bit depth                                : 16 bits
Compression mode                         : Lossy
Stream size                              : 450 MiB (1%)
Title                                    : WALL-E.2008.2160p.BluRay.REMUX.HEVC.DTS-HD.MA.TrueHD.7.1.Atmos-FGT
Language                                 : English
Service kind                             : Complete Main
Default                                  : No
Forced                                   : No

Audio #3
ID                                       : 4
Format                                   : DTS ES XLL
Format/Info                              : Digital Theater Systems
Commercial name                          : DTS-HD Master Audio
Codec ID                                 : A_DTS
Duration                                 : 1 h 38 min
Bit rate mode                            : Variable
Bit rate                                 : 4 147 kb/s
Channel(s)                               : 6 channels
Channel(s)_Original                      : 7 channels
Channel layout                           : C L R Ls Rs LFE Cb
Sampling rate                            : 48.0 kHz
Frame rate                               : 93.750 FPS (512 SPF)
Bit depth                                : 24 bits
Compression mode                         : Lossless
Delay relative to video                  : 667 ms
Stream size                              : 2.84 GiB (7%)
Title                                    : WALL-E.2008.2160p.BluRay.REMUX.HEVC.DTS-HD.MA.TrueHD.7.1.Atmos-FGT
Language                                 : English
Default                                  : No
Forced                                   : No

Audio #4
ID                                       : 5
Format                                   : AC-3
Format/Info                              : Audio Coding 3
Commercial name                          : Dolby Digital
Codec ID                                 : A_AC3
Duration                                 : 1 h 38 min
Bit rate mode                            : Constant
Bit rate                                 : 640 kb/s
Channel(s)                               : 6 channels
Channel layout                           : L R C LFE Ls Rs
Sampling rate                            : 48.0 kHz
Frame rate                               : 31.250 FPS (1536 SPF)
Bit depth                                : 16 bits
Compression mode                         : Lossy
Stream size                              : 450 MiB (1%)
Title                                    : WALL-E.2008.2160p.BluRay.REMUX.HEVC.DTS-HD.MA.TrueHD.7.1.Atmos-FGT
Language                                 : English
Service kind                             : Complete Main
Default                                  : No
Forced                                   : No

Audio #5
ID                                       : 6
Format                                   : AC-3
Format/Info                              : Audio Coding 3
Commercial name                          : Dolby Digital
Codec ID                                 : A_AC3
Duration                                 : 1 h 38 min
Bit rate mode                            : Constant
Bit rate                                 : 320 kb/s
Channel(s)                               : 2 channels
Channel layout                           : L R
Sampling rate                            : 48.0 kHz
Frame rate                               : 31.250 FPS (1536 SPF)
Bit depth                                : 16 bits
Compression mode                         : Lossy
Stream size                              : 225 MiB (1%)
Title                                    : WALL-E.2008.2160p.BluRay.REMUX.HEVC.DTS-HD.MA.TrueHD.7.1.Atmos-FGT
Language                                 : English
Service kind                             : Complete Main
Default                                  : No
Forced                                   : No

Audio #6
ID                                       : 7
Format                                   : AC-3
Format/Info                              : Audio Coding 3
Commercial name                          : Dolby Digital
Codec ID                                 : A_AC3
Duration                                 : 1 h 38 min
Bit rate mode                            : Constant
Bit rate                                 : 320 kb/s
Channel(s)                               : 2 channels
Channel layout                           : L R
Sampling rate                            : 48.0 kHz
Frame rate                               : 31.250 FPS (1536 SPF)
Bit depth                                : 16 bits
Compression mode                         : Lossy
Stream size                              : 225 MiB (1%)
Title                                    : WALL-E.2008.2160p.BluRay.REMUX.HEVC.DTS-HD.MA.TrueHD.7.1.Atmos-FGT
Language                                 : English
Service kind                             : Complete Main
Default                                  : No
Forced                                   : No

Audio #7
ID                                       : 8
Format                                   : AC-3
Format/Info                              : Audio Coding 3
Commercial name                          : Dolby Digital
Codec ID                                 : A_AC3
Duration                                 : 1 h 38 min
Bit rate mode                            : Constant
Bit rate                                 : 640 kb/s
Channel(s)                               : 6 channels
Channel layout                           : L R C LFE Ls Rs
Sampling rate                            : 48.0 kHz
Frame rate                               : 31.250 FPS (1536 SPF)
Bit depth                                : 16 bits
Compression mode                         : Lossy
Delay relative to video                  : 667 ms
Stream size                              : 450 MiB (1%)
Title                                    : WALL-E.2008.2160p.BluRay.REMUX.HEVC.DTS-HD.MA.TrueHD.7.1.Atmos-FGT
Language                                 : French
Service kind                             : Complete Main
Default                                  : No
Forced                                   : No

Audio #8
ID                                       : 9
Format                                   : AC-3
Format/Info                              : Audio Coding 3
Commercial name                          : Dolby Digital
Codec ID                                 : A_AC3
Duration                                 : 1 h 38 min
Bit rate mode                            : Constant
Bit rate                                 : 640 kb/s
Channel(s)                               : 6 channels
Channel layout                           : L R C LFE Ls Rs
Sampling rate                            : 48.0 kHz
Frame rate                               : 31.250 FPS (1536 SPF)
Bit depth                                : 16 bits
Compression mode                         : Lossy
Delay relative to video                  : 667 ms
Stream size                              : 450 MiB (1%)
Title                                    : WALL-E.2008.2160p.BluRay.REMUX.HEVC.DTS-HD.MA.TrueHD.7.1.Atmos-FGT
Language                                 : Spanish
Service kind                             : Complete Main
Default                                  : No
Forced                                   : No

Text #1
ID                                       : 10
Format                                   : UTF-8
Codec ID                                 : S_TEXT/UTF8
Codec ID/Info                            : UTF-8 Plain Text
Duration                                 : 1 h 35 min
Bit rate                                 : 26 b/s
Count of elements                        : 758
Stream size                              : 18.7 KiB (0%)
Title                                    : English-SRT
Language                                 : English
Default                                  : Yes
Forced                                   : No

Text #2
ID                                       : 11
Format                                   : PGS
Muxing mode                              : zlib
Codec ID                                 : S_HDMV/PGS
Codec ID/Info                            : Picture based subtitle format used on BDs/HD-DVDs
Duration                                 : 1 h 37 min
Bit rate                                 : 29.0 kb/s
Count of elements                        : 2726
Stream size                              : 20.2 MiB (0%)
Title                                    : English-PGS
Language                                 : English
Default                                  : No
Forced                                   : No

Text #3
ID                                       : 12
Format                                   : PGS
Muxing mode                              : zlib
Codec ID                                 : S_HDMV/PGS
Codec ID/Info                            : Picture based subtitle format used on BDs/HD-DVDs
Duration                                 : 1 h 37 min
Bit rate                                 : 11.9 kb/s
Count of elements                        : 994
Stream size                              : 8.28 MiB (0%)
Title                                    : French-PGS
Language                                 : French
Default                                  : No
Forced                                   : No

Text #4
ID                                       : 13
Format                                   : PGS
Muxing mode                              : zlib
Codec ID                                 : S_HDMV/PGS
Codec ID/Info                            : Picture based subtitle format used on BDs/HD-DVDs
Duration                                 : 1 h 37 min
Bit rate                                 : 11.8 kb/s
Count of elements                        : 1044
Stream size                              : 8.24 MiB (0%)
Title                                    : Spanish-PGS
Language                                 : Spanish
Default                                  : No
Forced                                   : No

Menu
00:00:00.000                             : en:Chapter 01
00:03:36.674                             : en:Chapter 02
00:05:50.350                             : en:Chapter 03
00:09:19.433                             : en:Chapter 04
00:12:03.848                             : en:Chapter 05
00:17:57.117                             : en:Chapter 06
00:19:34.047                             : en:Chapter 07
00:21:10.811                             : en:Chapter 08
00:23:47.342                             : en:Chapter 09
00:29:18.506                             : en:Chapter 10
00:31:25.758                             : en:Chapter 11
00:33:28.423                             : en:Chapter 12
00:35:20.785                             : en:Chapter 13
00:38:50.202                             : en:Chapter 14
00:42:53.946                             : en:Chapter 15
00:43:32.234                             : en:Chapter 16
00:51:09.608                             : en:Chapter 17
00:52:08.250                             : en:Chapter 18
00:54:47.826                             : en:Chapter 19
00:56:06.446                             : en:Chapter 20
00:57:58.683                             : en:Chapter 21
00:58:41.851                             : en:Chapter 22
01:02:15.565                             : en:Chapter 23
01:03:21.506                             : en:Chapter 24
01:05:50.363                             : en:Chapter 25
01:11:45.551                             : en:Chapter 26
01:15:54.883                             : en:Chapter 27
01:19:23.258                             : en:Chapter 28
01:20:15.060                             : en:Chapter 29
01:24:14.758                             : en:Chapter 30
01:25:46.432                             : en:Chapter 31
01:30:17.787                             : en:Chapter 32


悠悠MP4_MP4电影下载_机器人总动员 WALL-E.2008.2160p.BluRay.REMUX.HEVC.DTS-HD.MA.TrueHD.7.1.Atmos-FGT 38.40G悠悠MP4_MP4电影下载_机器人总动员 WALL-E.2008.2160p.BluRay.REMUX.HEVC.DTS-HD.MA.TrueHD.7.1.Atmos-FGT 38.40G悠悠MP4_MP4电影下载_机器人总动员 WALL-E.2008.2160p.BluRay.REMUX.HEVC.DTS-HD.MA.TrueHD.7.1.Atmos-FGT 38.40G


提示:如迅雷下载提示"任务出错"、"因版权无法下载",请尝试【迅雷5】
上传的附件:
最新回复 (0)
返回
本站所有资源均收集自互联网,没有提供影片资源存储, 也未参与录制、上传,若本站收录的资源无意侵犯了您的权益, 请联系邮箱:gogoimgs#gmail.com(#=@)