[2013] [欧美] [剧情] [WEB-1080P] 黑色警报 Code.Black.2013.1080p.WEBRip.DD5.1.x264-MTV 2.95GB

uump4 1月前 277

帖子完整标题:黑色警报 Code.Black.2013.1080p.WEBRip.DD5.1.x264-MTV 2.95GB


悠悠MP4_MP4电影下载_黑色警报 Code.Black.2013.1080p.WEBRip.DD5.1.x264-MTV 2.95GB

◎译  名 黑色警报
◎片  名 Code Black
◎年  代 2013
◎产  地 美国
◎类  别 剧情 / 纪录片
◎语  言 英语
◎上映日期 2013-06-18(洛杉矶电影节)
◎IMDb评分 7.3/10 from 544 users
◎IMDb链接 https://www.imdb.com/title/tt2759372
◎豆瓣评分 9.2/10 from 143 users
◎豆瓣链接 https://movie.douban.com/subject/24522843/
◎片  长 78分钟
◎导  演 Ryan McGarry
◎主  演 Ryan McGarry
      Klatann Thomas


◎标  签 纪录片 | 美国 | 医疗系统 | 医疗 | 医学 | Documentary | 美国电影 | 2013

◎简  介

  A notorious trauma bay in an inner-city ER earns its keep as the 'hurt locker of medicine' as new, idealistic and adrenaline-seeking doctors train in an environment akin to a war-zone. When the hospital moves to a swank, new building the rush fades and bureaucracy gridlocks the state of the art facility, and the doctors are faced with the unexpected realities of life and death in a safety-net health care system at the brink of overload.
Video
ID : 1
Format : AVC
Format/Info : Advanced Video Codec
Format profile : [email protected]
Format settings : CABAC / 2 Ref Frames
Format settings, CABAC : Yes
Format settings, Reference frames : 2 frames
Codec ID : V_MPEG4/ISO/AVC
Duration : 1 h 20 min
Bit rate mode : Variable
Bit rate : 4 852 kb/s
Maximum bit rate : 768 kb/s
Width : 1 918 pixels
Height : 1 078 pixels
Display aspect ratio : 16:9
Frame rate mode : Constant
Frame rate : 23.976 (24000/1001) FPS
Color space : YUV
Chroma subsampling : 4:2:0
Bit depth : 8 bits
Scan type : Progressive
Bits/(Pixel*Frame) : 0.098
Stream size : 2.73 GiB (93%)
Language : English
Default : Yes
Forced : No

Audio
ID : 2
Format : AC-3
Format/Info : Audio Coding 3
Commercial name : Dolby Digital
Codec ID : A_AC3
Duration : 1 h 20 min
Bit rate mode : Constant
Bit rate : 384 kb/s
Channel(s) : 6 channels
Channel layout : L R C LFE Ls Rs
Sampling rate : 48.0 kHz
Frame rate : 31.250 FPS (1536 SPF)
Bit depth : 16 bits
Compression mode : Lossy
Stream size : 222 MiB (7%)
Language : English
Service kind : Complete Main
Default : Yes
Forced : No

Menu
00:00:00.000 : en:Opening Sequence
00:05:35.000 : en:L.A. County Hospital
00:10:04.000 : en:C-Booth
00:15:45.000 : en:Legend In The ER World
00:19:51.000 : en:Bring People Together
00:25:40.000 : en:A New Generation
00:31:21.000 : en:Breaking The News
00:36:06.000 : en:Cancer
00:41:17.000 : en:The Care
00:45:27.000 : en:Code Black
00:50:08.000 : en:Pushing Myself
00:55:08.000 : en:Regulations
01:01:27.000 : en:The Wait Of The Waiting Room
01:05:15.000 : en:The Effect On The Other Areas
01:12:16.000 : en:A Massive Community Came Together
01:17:26.000 : en:End Credits

悠悠MP4_MP4电影下载_黑色警报 Code.Black.2013.1080p.WEBRip.DD5.1.x264-MTV 2.95GB悠悠MP4_MP4电影下载_黑色警报 Code.Black.2013.1080p.WEBRip.DD5.1.x264-MTV 2.95GB悠悠MP4_MP4电影下载_黑色警报 Code.Black.2013.1080p.WEBRip.DD5.1.x264-MTV 2.95GB


提示:如迅雷下载提示"任务出错"、"因版权无法下载",请尝试【迅雷5】
上传的附件:
最新回复 (0)
返回
本站所有资源均收集自互联网,没有提供影片资源存储, 也未参与录制、上传,若本站收录的资源无意侵犯了您的权益, 请联系邮箱:gogoimgs#gmail.com(#=@)