[更早] [欧美] [动作] [WEB-1080P] 火力冲突/西部狂飙 Crossfire.Trail.2001.1080p.AMZN.WEBRip.DDP2.0.x264-ETHiCS 7.24GB

uump4 1月前 267

帖子完整标题:火力冲突/西部狂飙 Crossfire.Trail.2001.1080p.AMZN.WEBRip.DDP2.0.x264-ETHiCS 7.24GB


悠悠MP4_MP4电影下载_火力冲突/西部狂飙 Crossfire.Trail.2001.1080p.AMZN.WEBRip.DDP2.0.x264-ETHiCS 7.24GB

◎译  名 火力冲突 / 西部狂飙
◎片  名 Crossfire Trail
◎年  代 2001
◎产  地 美国
◎类  别 动作 / 西部
◎语  言 英语
◎上映日期 2001-01-21
◎IMDb评分  7.2/10 from 2629 users
◎IMDb链接  https://www.imdb.com/title/tt0218127
◎豆瓣评分 0/10 from 0 users
◎豆瓣链接 https://movie.douban.com/subject/1296522/
◎片  长 92分钟
◎导  演 Simon Wincer
◎编  剧 Louis L'Amour / Charles Robert Carner
◎主  演 Tom Selleck
       Virginia Madsen
       Wilford Brimley


◎标  签 西部 | 美国 | 西部片 | 欧美 | 无资源 | 2001

◎简  介  

  不幸被抢劫并被卖到船上当苦力的查理临终前托付朋友瑞弗到怀俄明州去照顾他的妻子和女儿,并将半座农场送给他。
  为了完成对故人的承诺,瑞弗来到怀俄明州,奇怪的发现查理的妻子安认为丈夫两年前就已经去世了,他们的女儿也在一次不幸中丧生了,她正准备与当地的一位绅士结婚,安对瑞弗所说的遗嘱毫不相信,认为他是谋夺家产的骗子。
  为了保卫农场,保护安,在朋友们的帮助下瑞弗决定向阴谋的制造者宣战……

Video
ID                                       : 1
Format                                   : AVC
Format/Info                              : Advanced Video Codec
Format profile                           : [email protected]
Format settings                          : CABAC / 4 Ref Frames
Format settings, CABAC                   : Yes
Format settings, Reference frames        : 4 frames
Codec ID                                 : V_MPEG4/ISO/AVC
Duration                                 : 1 h 35 min
Bit rate                                 : 10.6 Mb/s
Width                                    : 1 920 pixels
Height                                   : 1 080 pixels
Display aspect ratio                     : 16:9
Frame rate mode                          : Constant
Frame rate                               : 23.976 (24000/1001) FPS
Color space                              : YUV
Chroma subsampling                       : 4:2:0
Bit depth                                : 8 bits
Scan type                                : Progressive
Bits/(Pixel*Frame)                       : 0.213
Stream size                              : 7.09 GiB (98%)
Language                                 : English
Default                                  : Yes
Forced                                   : No
Color range                              : Limited
Color primaries                          : BT.709
Transfer characteristics                 : BT.709
Matrix coefficients                      : BT.709

Audio
ID                                       : 2
Format                                   : E-AC-3
Format/Info                              : Enhanced AC-3
Commercial name                          : Dolby Digital Plus
Codec ID                                 : A_EAC3
Duration                                 : 1 h 35 min
Bit rate mode                            : Constant
Bit rate                                 : 224 kb/s
Channel(s)                               : 2 channels
Channel layout                           : L R
Sampling rate                            : 48.0 kHz
Frame rate                               : 31.250 FPS (1536 SPF)
Compression mode                         : Lossy
Stream size                              : 153 MiB (2%)
Language                                 : English
Service kind                             : Complete Main
Default                                  : Yes
Forced                                   : No

Text
ID                                       : 3
Format                                   : UTF-8
Codec ID                                 : S_TEXT/UTF8
Codec ID/Info                            : UTF-8 Plain Text
Duration                                 : 1 h 33 min
Bit rate                                 : 41 b/s
Count of elements                        : 872
Stream size                              : 28.1 KiB (0%)
Title                                    : SDH
Language                                 : English
Default                                  : No
Forced                                   : No


悠悠MP4_MP4电影下载_火力冲突/西部狂飙 Crossfire.Trail.2001.1080p.AMZN.WEBRip.DDP2.0.x264-ETHiCS 7.24GB悠悠MP4_MP4电影下载_火力冲突/西部狂飙 Crossfire.Trail.2001.1080p.AMZN.WEBRip.DDP2.0.x264-ETHiCS 7.24GB悠悠MP4_MP4电影下载_火力冲突/西部狂飙 Crossfire.Trail.2001.1080p.AMZN.WEBRip.DDP2.0.x264-ETHiCS 7.24GB


提示:如迅雷下载提示"任务出错"、"因版权无法下载",请尝试【迅雷5】
上传的附件:
最新回复 (0)
返回
本站所有资源均收集自互联网,没有提供影片资源存储, 也未参与录制、上传,若本站收录的资源无意侵犯了您的权益, 请联系邮箱:gogoimgs#gmail.com(#=@)