[2018] [欧美] [喜剧] [WEB-1080P] 恋爱恐惧症 Philophobia.Or.The.Fear.of.Falling.in.Love.2019.1080p.AMZN.WEBRip.DDP5.1.x

uump4 1月前 150

帖子完整标题:恋爱恐惧症 Philophobia.Or.The.Fear.of.Falling.in.Love.2019.1080p.AMZN.WEBRip.DDP5.1.x264-FC 2.62GB


悠悠MP4_MP4电影下载_恋爱恐惧症 Philophobia.Or.The.Fear.of.Falling.in.Love.2019.1080p.AMZN.WEBRip.DDP5.1.x

◎译  名 恋爱恐惧症
◎片  名 Philophobia: or the Fear of Falling in Love
◎年  代 2018
◎产  地 美国
◎类  别 喜剧 / 恐怖
◎语  言 英语
◎上映日期 2019-11-12(美国)
◎IMDb评分  5.6/10 from 425 users
◎IMDb链接  https://www.imdb.com/title/tt7003976
◎豆瓣评分 0/10 from 0 users
◎豆瓣链接 https://movie.douban.com/subject/27118085/
◎导  演 Tyler Cole
◎编  剧 Aaron Burt
◎主  演 Aaron Burt
       Emily Pearse
       David Lengel


◎标  签 恐怖 | 喜剧 | 美国电影 | USA | Horror&Thriller

◎简  介  

  Mildly successful podcaster, Damien Booster, is digging his bachelor lifestyle until a frequent hookup confesses her love for him while delivering an ultimatum. If he shows up for brunch to m.ysgou.cc meet her mother, she'll know he is serious. If not, things are over between them. Now terrified and confused, Damien has to fight the urge to run from the thing that scares him most.

Video
ID                                       : 1
Format                                   : AVC
Format/Info                              : Advanced Video Codec
Format profile                           : [email protected]
Format settings                          : CABAC / 4 Ref Frames
Format settings, CABAC                   : Yes
Format settings, Reference frames        : 4 frames
Codec ID                                 : V_MPEG4/ISO/AVC
Duration                                 : 1 h 25 min
Bit rate mode                            : Constant
Bit rate                                 : 3 769 kb/s
Nominal bit rate                         : 10 000 kb/s
Width                                    : 1 920 pixels
Height                                   : 800 pixels
Display aspect ratio                     : 2.40:1
Frame rate mode                          : Constant
Frame rate                               : 24.000 FPS
Color space                              : YUV
Chroma subsampling                       : 4:2:0
Bit depth                                : 8 bits
Scan type                                : Progressive
Bits/(Pixel*Frame)                       : 0.102
Stream size                              : 2.24 GiB (85%)
Default                                  : Yes
Forced                                   : No
Color range                              : Limited
Color primaries                          : BT.709
Transfer characteristics                 : BT.709
Matrix coefficients                      : BT.709

Audio
ID                                       : 2
Format                                   : E-AC-3
Format/Info                              : Enhanced AC-3
Commercial name                          : Dolby Digital Plus
Codec ID                                 : A_EAC3
Duration                                 : 1 h 25 min
Bit rate mode                            : Constant
Bit rate                                 : 640 kb/s
Channel(s)                               : 6 channels
Channel layout                           : L R C LFE Ls Rs
Sampling rate                            : 48.0 kHz
Frame rate                               : 31.250 FPS (1536 SPF)
Compression mode                         : Lossy
Stream size                              : 390 MiB (15%)
Language                                 : English
Service kind                             : Complete Main
Default                                  : Yes
Forced                                   : No

Text
ID                                       : 3
Format                                   : UTF-8
Codec ID                                 : S_TEXT/UTF8
Codec ID/Info                            : UTF-8 Plain Text
Duration                                 : 1 h 24 min
Bit rate                                 : 74 b/s
Count of elements                        : 1674
Stream size                              : 46.3 KiB (0%)
Language                                 : English
Default                                  : Yes
Forced                                   : No


悠悠MP4_MP4电影下载_恋爱恐惧症 Philophobia.Or.The.Fear.of.Falling.in.Love.2019.1080p.AMZN.WEBRip.DDP5.1.x悠悠MP4_MP4电影下载_恋爱恐惧症 Philophobia.Or.The.Fear.of.Falling.in.Love.2019.1080p.AMZN.WEBRip.DDP5.1.x悠悠MP4_MP4电影下载_恋爱恐惧症 Philophobia.Or.The.Fear.of.Falling.in.Love.2019.1080p.AMZN.WEBRip.DDP5.1.x


提示:如迅雷下载提示"任务出错"、"因版权无法下载",请尝试【迅雷5】
上传的附件:
最新回复 (0)
返回
本站所有资源均收集自互联网,没有提供影片资源存储, 也未参与录制、上传,若本站收录的资源无意侵犯了您的权益, 请联系邮箱:gogoimgs#gmail.com(#=@)