[2019] [其他] [WEB-720P] 美翻了 So.Pretty.2019.720p.AMZN.WEBRip.DDP2.0.x264-TEPES 3.34GB

uump4 1月前 294

帖子完整标题:美翻了 So.Pretty.2019.720p.AMZN.WEBRip.DDP2.0.x264-TEPES 3.34GB


悠悠MP4_MP4电影下载_美翻了 So.Pretty.2019.720p.AMZN.WEBRip.DDP2.0.x264-TEPES 3.34GB

◎译  名 美翻了
◎片  名 So Pretty
◎年  代 2019
◎产  地 美国 / 法国
◎语  言 英语
◎上映日期 2019-02-10(柏林电影节)
◎IMDb评分  5.6/10 from 42 users
◎IMDb链接  https://www.imdb.com/title/tt9595506
◎豆瓣评分 0/10 from 0 users
◎豆瓣链接 https://movie.douban.com/subject/30438165/
◎片  长 83分钟
◎导  演 Jessie Jeffrey Dunn Rovinelli
◎编  剧 Jessie Jeffrey Dunn Rovinelli
◎主  演 Phoebe DeGroot


◎标  签 2019 | 柏林电影节 | LGBT | 酷儿 | 美国 | P-BerlinE论坛单元 | 论坛单元 | 美国电影

◎简  介  

  纽约市的四个同性恋和跨种族青年为了维持他们与外界对抗的乌托邦社区而奋斗,因为他们的生活奇怪地与20世纪80年代由罗纳德·M·舍尼卡乌创作的德国小说《so sch?n》融合在一起。

◎获奖情况  

  第69届柏林国际电影节(2019)
  泰迪熊奖 最佳电影(提名)

Video
ID                                       : 1
Format                                   : AVC
Format/Info                              : Advanced Video Codec
Format profile                           : [email protected]
Format settings                          : CABAC / 4 Ref Frames
Format settings, CABAC                   : Yes
Format settings, Reference frames        : 4 frames
Codec ID                                 : V_MPEG4/ISO/AVC
Duration                                 : 1 h 24 min
Bit rate mode                            : Constant
Bit rate                                 : 5 457 kb/s
Nominal bit rate                         : 6 000 kb/s
Width                                    : 1 280 pixels
Height                                   : 688 pixels
Display aspect ratio                     : 1.85:1
Frame rate mode                          : Constant
Frame rate                               : 23.976 (24000/1001) FPS
Color space                              : YUV
Chroma subsampling                       : 4:2:0
Bit depth                                : 8 bits
Scan type                                : Progressive
Bits/(Pixel*Frame)                       : 0.258
Stream size                              : 3.20 GiB (96%)
Default                                  : Yes
Forced                                   : No
Color range                              : Limited
Color primaries                          : BT.709
Transfer characteristics                 : BT.709
Matrix coefficients                      : BT.709

Audio
ID                                       : 2
Format                                   : E-AC-3
Format/Info                              : Enhanced AC-3
Commercial name                          : Dolby Digital Plus
Codec ID                                 : A_EAC3
Duration                                 : 1 h 24 min
Bit rate mode                            : Constant
Bit rate                                 : 224 kb/s
Channel(s)                               : 2 channels
Channel layout                           : L R
Sampling rate                            : 48.0 kHz
Frame rate                               : 31.250 FPS (1536 SPF)
Compression mode                         : Lossy
Stream size                              : 135 MiB (4%)
Language                                 : English
Service kind                             : Complete Main
Default                                  : Yes
Forced                                   : No

Text #1
ID                                       : 3
Format                                   : UTF-8
Codec ID                                 : S_TEXT/UTF8
Codec ID/Info                            : UTF-8 Plain Text
Duration                                 : 1 h 15 min
Bit rate                                 : 34 b/s
Count of elements                        : 604
Stream size                              : 19.0 KiB (0%)
Title                                    : SDH
Language                                 : English
Default                                  : No
Forced                                   : No

Text #2
ID                                       : 4
Format                                   : UTF-8
Codec ID                                 : S_TEXT/UTF8
Codec ID/Info                            : UTF-8 Plain Text
Duration                                 : 1 h 12 min
Bit rate                                 : 34 b/s
Count of elements                        : 562
Stream size                              : 18.5 KiB (0%)
Title                                    : Espa?ol
Language                                 : Spanish
Default                                  : No
Forced                                   : No

Text #3
ID                                       : 5
Format                                   : UTF-8
Codec ID                                 : S_TEXT/UTF8
Codec ID/Info                            : UTF-8 Plain Text
Duration                                 : 1 h 12 min
Bit rate                                 : 31 b/s
Count of elements                        : 502
Stream size                              : 16.6 KiB (0%)
Language                                 : Turkish
Default                                  : No
Forced                                   : No


悠悠MP4_MP4电影下载_美翻了 So.Pretty.2019.720p.AMZN.WEBRip.DDP2.0.x264-TEPES 3.34GB悠悠MP4_MP4电影下载_美翻了 So.Pretty.2019.720p.AMZN.WEBRip.DDP2.0.x264-TEPES 3.34GB悠悠MP4_MP4电影下载_美翻了 So.Pretty.2019.720p.AMZN.WEBRip.DDP2.0.x264-TEPES 3.34GB


提示:如迅雷下载提示"任务出错"、"因版权无法下载",请尝试【迅雷5】
上传的附件:
最新回复 (0)
返回
本站所有资源均收集自互联网,没有提供影片资源存储, 也未参与录制、上传,若本站收录的资源无意侵犯了您的权益, 请联系邮箱:gogoimgs#gmail.com(#=@)