[2019] [其他] [剧情] [BD-720P] 赛马女孩/奔跑吧女孩 Ride.Like.A.Girl.2019.720p.BluRay.x264-PFa 4.36GB

uump4 1月前 113

帖子完整标题:赛马女孩/奔跑吧女孩 Ride.Like.A.Girl.2019.720p.BluRay.x264-PFa 4.36GB


悠悠MP4_MP4电影下载_赛马女孩/奔跑吧女孩 Ride.Like.A.Girl.2019.720p.BluRay.x264-PFa 4.36GB

◎译  名 赛马女孩 / 奔跑吧女孩(台)
◎片  名 Ride Like A Girl
◎年  代 2019
◎产  地 澳大利亚
◎类  别 剧情 / 传记 / 运动
◎语  言 英语
◎上映日期 2019-09-18(澳大利亚)
◎IMDb评分  6.8/10 from 1218 users
◎IMDb链接  https://www.imdb.com/title/tt7600382
◎豆瓣评分 7.6/10 from 1031 users
◎豆瓣链接 https://movie.douban.com/subject/27131198/
◎片  长 98分钟
◎导  演 瑞切尔·格里菲斯 Rachel Griffiths
◎编  剧 安德鲁·奈特 Andrew Knight / 伊丽丝·麦克雷迪 Elise McCredie
◎主  演 泰莉莎·帕尔墨 Teresa Palmer
       山姆·尼尔 Sam Neill
       沙利文·斯特普尔顿 Sullivan Stapleton
       布鲁克·斯塔奇威尔 Brooke Satchwell
       索菲亚·福雷斯特 Sophia Forrest
       玛格达·苏班斯基 Magda Szubanski
       亚伦·格伦尼 Aaron Glenane
       扎拉·佐伊 Zara Zoe
       亨利·尼克松 Henry Nixon
       沙恩·伯恩 Shane Bourne
       雅各布·华纳 Jacob Warner
       吉纳维芙·莫里斯 Genevieve Morris
       史蒂夫·佩恩 Stevie Payne
       米克·莫利 Mick Molloy
       艾米·克里斯蒂安 Amy Christian
       道格拉斯·恩布里 Douglas Embry
       泽维尔·勾奥尔特 Xavier Gouault
       瑞切尔·格里菲斯 Rachel Griffiths


◎标  签 澳大利亚 | 传记 | 女性 | 励志 | 赛马 | 运动 | 2019 | 剧情

◎简  介  

  讲述米歇尔·佩恩(泰莉莎·帕尔墨饰)被警告她永远不可能成为世界级的赛马骑手,只因为她不够强硬,她也不是一个男人。而米歇尔势必要让人们知道自己的能力。

Video
ID                                       : 1
Format                                   : AVC
Format/Info                              : Advanced Video Codec
Format profile                           : [email protected]
Format settings                          : CABAC / 5 Ref Frames
Format settings, CABAC                   : Yes
Format settings, Reference frames        : 5 frames
Codec ID                                 : V_MPEG4/ISO/AVC
Duration                                 : 1 h 38 min
Bit rate                                 : 4 847 kb/s
Width                                    : 1 280 pixels
Height                                   : 688 pixels
Display aspect ratio                     : 1.85:1
Frame rate mode                          : Constant
Frame rate                               : 24.000 FPS
Color space                              : YUV
Chroma subsampling                       : 4:2:0
Bit depth                                : 8 bits
Scan type                                : Progressive
Bits/(Pixel*Frame)                       : 0.229
Stream size                              : 3.32 GiB (76%)
Writing library                          : x264 core 157 r2969 d4099dd
Encoding settings                        : cabac=1 / ref=5 / deblock=1:0:0 / analyse=0x3:0x133 / me=umh / subme=8 / psy=1 / psy_rd=1.00:0.00 / mixed_ref=1 / me_range=16 / chroma_me=1 / trellis=1 / 8x8dct=1 / cqm=0 / deadzone=21,11 / fast_pskip=0 / chroma_qp_offset=-2 / threads=12 / lookahead_threads=2 / sliced_threads=0 / nr=0 / decimate=1 / interlaced=0 / bluray_compat=0 / constrained_intra=0 / bframes=3 / b_pyramid=2 / b_adapt=1 / b_bias=0 / direct=1 / weightb=1 / open_gop=0 / weightp=2 / keyint=250 / keyint_min=24 / scenecut=40 / intra_refresh=0 / rc_lookahead=40 / rc=2pass / mbtree=1 / bitrate=4847 / ratetol=1.0 / qcomp=0.60 / qpmin=0 / qpmax=69 / qpstep=4 / cplxblur=20.0 / qblur=0.5 / ip_ratio=1.40 / aq=1:1.00
Language                                 : English
Default                                  : Yes
Forced                                   : No

Audio
ID                                       : 2
Format                                   : DTS
Format/Info                              : Digital Theater Systems
Codec ID                                 : A_DTS
Duration                                 : 1 h 38 min
Bit rate mode                            : Constant
Bit rate                                 : 1 509 kb/s
Channel(s)                               : 6 channels
Channel layout                           : C L R Ls Rs LFE
Sampling rate                            : 48.0 kHz
Frame rate                               : 93.750 FPS (512 SPF)
Bit depth                                : 24 bits
Compression mode                         : Lossy
Stream size                              : 1.03 GiB (24%)
Default                                  : Yes
Forced                                   : No


悠悠MP4_MP4电影下载_赛马女孩/奔跑吧女孩 Ride.Like.A.Girl.2019.720p.BluRay.x264-PFa 4.36GB


提示:如迅雷下载提示"任务出错"、"因版权无法下载",请尝试【迅雷5】
上传的附件:
最新回复 (0)
返回
本站所有资源均收集自互联网,没有提供影片资源存储, 也未参与录制、上传,若本站收录的资源无意侵犯了您的权益, 请联系邮箱:gogoimgs#gmail.com(#=@)