[更早] [其他] [剧情] [BD-1080P] 末日美利坚 The.Decline.of.the.American.Empire.1986.1080p.BluRay.x264-FUTURiSTiC 8.77G

uump4 4月前 369

帖子完整标题:末日美利坚 The.Decline.of.the.American.Empire.1986.1080p.BluRay.x264-FUTURiSTiC 8.77GB


悠悠MP4_MP4电影下载_末日美利坚 The.Decline.of.the.American.Empire.1986.1080p.BluRay.x264-FUTURiSTiC 8.77G

◎译  名 末日美利坚 / The Decline of the American Empire / 美帝沦亡录 / 美洲帝国的衰落
◎片  名 Le déclin de l'empire américain
◎年  代 1986
◎产  地 加拿大
◎类  别 剧情 / 喜剧
◎语  言 法语
◎上映日期 1986-06-19
◎IMDb评分  7.3/10 from 7406 users
◎IMDb链接  https://www.imdb.com/title/tt0090985
◎豆瓣评分 7.1/10 from 271 users
◎豆瓣链接 https://movie.douban.com/subject/1421968/
◎片  长 101 分钟
◎导  演 Denys Arcand
◎编  剧 Denys Arcand
◎主  演 Dominique Michel
       Dorothée Berryman
       Louise Portal
       Rémy Girard
       Yves Jacques


◎标  签 加拿大 | 加拿大电影 | DenysArcand | 喜剧 | 1986 | Denys_Arcand | 1980s | 法国

◎简  介  

  一顿好友聚会的晚餐前,四个男人在厨房准备,而他们的妻子却在健身房运动。
  他们的话题不是别的,都从容的抒发自己对“人类幸福”的一个侧面——婚姻与性的理解。
  然而当晚饭过后,却陷入了……

◎获奖情况  

  第59届奥斯卡金像奖(1987)
  最佳外语片(提名)

  第39届戛纳电影节(1986)
  费比西奖 丹尼斯·阿康特

Video
ID                                       : 1
Format                                   : AVC
Format/Info                              : Advanced Video Codec
Format profile                           : [email protected]
Format settings                          : CABAC / 4 Ref Frames
Format settings, CABAC                   : Yes
Format settings, Reference frames        : 4 frames
Codec ID                                 : V_MPEG4/ISO/AVC
Duration                                 : 1 h 41 min
Bit rate                                 : 10.6 Mb/s
Width                                    : 1 920 pixels
Height                                   : 1 080 pixels
Display aspect ratio                     : 16:9
Frame rate mode                          : Constant
Frame rate                               : 23.976 (24000/1001) FPS
Color space                              : YUV
Chroma subsampling                       : 4:2:0
Bit depth                                : 8 bits
Scan type                                : Progressive
Bits/(Pixel*Frame)                       : 0.214
Stream size                              : 7.37 GiB (84%)
Writing library                          : x264 core 159 r2991 1771b55
Encoding settings                        : cabac=1 / ref=4 / deblock=1:0:0 / analyse=0x3:0x133 / me=umh / subme=10 / psy=1 / psy_rd=1.00:0.00 / mixed_ref=1 / me_range=24 / chroma_me=1 / trellis=2 / 8x8dct=1 / cqm=0 / deadzone=21,11 / fast_pskip=1 / chroma_qp_offset=-2 / threads=24 / lookahead_threads=4 / sliced_threads=0 / nr=0 / decimate=1 / interlaced=0 / bluray_compat=0 / constrained_intra=0 / bframes=8 / b_pyramid=2 / b_adapt=2 / b_bias=0 / direct=3 / weightb=1 / open_gop=0 / weightp=2 / keyint=250 / keyint_min=23 / scenecut=40 / intra_refresh=0 / rc_lookahead=60 / rc=2pass / mbtree=1 / bitrate=10627 / ratetol=1.0 / qcomp=0.60 / qpmin=0 / qpmax=69 / qpstep=4 / cplxblur=20.0 / qblur=0.5 / ip_ratio=1.40 / aq=1:1.00
Default                                  : Yes
Forced                                   : No
Statistics Tags Issue                    : no_variable_data 1970-01-01 00:00:00 / no_variable_data 2010-02-22 21:41:29
FromStats_BitRate                        : 10627676
FromStats_Duration                       : 01:41:34.130000000
FromStats_FrameCount                     : 146113
FromStats_StreamSize                     : 8095805161

Audio #1
ID                                       : 2
Format                                   : DTS
Format/Info                              : Digital Theater Systems
Codec ID                                 : A_DTS
Duration                                 : 1 h 41 min
Bit rate mode                            : Constant
Bit rate                                 : 1 509 kb/s
Channel(s)                               : 6 channels
Channel layout                           : C L R Ls Rs LFE
Sampling rate                            : 48.0 kHz
Frame rate                               : 93.750 FPS (512 SPF)
Bit depth                                : 24 bits
Compression mode                         : Lossy
Stream size                              : 1.07 GiB (12%)
Language                                 : French
Default                                  : Yes
Forced                                   : No
Statistics Tags Issue                    : no_variable_data 1970-01-01 00:00:00 / no_variable_data 2010-02-22 21:41:29
FromStats_BitRate                        : 1509000
FromStats_Duration                       : 01:41:33.472000000
FromStats_FrameCount                     : 571263
FromStats_StreamSize                     : 1149381156

Audio #2
ID                                       : 3
Format                                   : AC-3
Format/Info                              : Audio Coding 3
Commercial name                          : Dolby Digital
Codec ID                                 : A_AC3
Duration                                 : 1 h 41 min
Bit rate mode                            : Constant
Bit rate                                 : 192 kb/s
Channel(s)                               : 2 channels
Channel layout                           : L R
Sampling rate                            : 48.0 kHz
Frame rate                               : 31.250 FPS (1536 SPF)
Bit depth                                : 16 bits
Compression mode                         : Lossy
Stream size                              : 139 MiB (2%)
Language                                 : English
Service kind                             : Complete Main
Default                                  : No
Forced                                   : No
Statistics Tags Issue                    : no_variable_data 1970-01-01 00:00:00 / no_variable_data 2010-02-22 21:41:29
FromStats_BitRate                        : 192000
FromStats_Duration                       : 01:41:33.472000000
FromStats_FrameCount                     : 190421
FromStats_StreamSize                     : 146243328

Text #1
ID                                       : 4
Format                                   : UTF-8
Codec ID                                 : S_TEXT/UTF8
Codec ID/Info                            : UTF-8 Plain Text
Language                                 : English
Default                                  : Yes
Forced                                   : No
Statistics Tags Issue                    : no_variable_data 1970-01-01 00:00:00 / no_variable_data 2010-02-22 21:41:29
FromStats_BitRate                        : 55
FromStats_Duration                       : 01:41:12.275000000
FromStats_FrameCount                     : 1513
FromStats_StreamSize                     : 42308

Text #2
ID                                       : 5
Format                                   : UTF-8
Codec ID                                 : S_TEXT/UTF8
Codec ID/Info                            : UTF-8 Plain Text
Language                                 : French
Default                                  : No
Forced                                   : No
Statistics Tags Issue                    : no_variable_data 1970-01-01 00:00:00 / no_variable_data 2010-02-22 21:41:29
FromStats_BitRate                        : 89
FromStats_Duration                       : 01:41:12.275000000
FromStats_FrameCount                     : 1774
FromStats_StreamSize                     : 68107

Text #3
ID                                       : 6
Format                                   : UTF-8
Codec ID                                 : S_TEXT/UTF8
Codec ID/Info                            : UTF-8 Plain Text
Title                                    : SDH
Language                                 : French
Default                                  : No
Forced                                   : No
Statistics Tags Issue                    : no_variable_data 1970-01-01 00:00:00 / no_variable_data 2010-02-22 21:41:29
FromStats_BitRate                        : 91
FromStats_Duration                       : 01:41:12.275000000
FromStats_FrameCount                     : 1818
FromStats_StreamSize                     : 69309

Menu
00:00:00.000                             : en:Chapter 01
00:06:33.852                             : en:Chapter 02
00:12:49.769                             : en:Chapter 03
00:18:59.764                             : en:Chapter 04
00:26:19.578                             : en:Chapter 05
00:32:00.585                             : en:Chapter 06
00:37:06.307                             : en:Chapter 07
00:45:01.365                             : en:Chapter 08
00:54:02.239                             : en:Chapter 09
00:59:26.396                             : en:Chapter 10
01:04:08.428                             : en:Chapter 11
01:11:44.675                             : en:Chapter 12
01:16:56.737                             : en:Chapter 13
01:25:02.055                             : en:Chapter 14
01:31:53.550                             : en:Chapter 15
01:39:01.561                             : en:Chapter 16


悠悠MP4_MP4电影下载_末日美利坚 The.Decline.of.the.American.Empire.1986.1080p.BluRay.x264-FUTURiSTiC 8.77G


提示:如迅雷下载提示"任务出错"、"因版权无法下载",请尝试【迅雷5】
上传的附件:
最新回复 (0)
返回
本站所有资源均收集自互联网,没有提供影片资源存储, 也未参与录制、上传,若本站收录的资源无意侵犯了您的权益, 请联系邮箱:gogoimgs#gmail.com(#=@)