[2019] [欧美] [剧情] [WEB-1080P] 高蒂/黄衣少女梦(港) Goldie.2019.1080p.AMZN.WEBRip.DDP5.1.x264-NTG 6.26GB

uump4 1月前 136

帖子完整标题:高蒂/黄衣少女梦(港) Goldie.2019.1080p.AMZN.WEBRip.DDP5.1.x264-NTG 6.26GB


悠悠MP4_MP4电影下载_高蒂/黄衣少女梦(港) Goldie.2019.1080p.AMZN.WEBRip.DDP5.1.x264-NTG 6.26GB

◎译  名 高蒂 / 黄衣少女梦(港)
◎片  名 Goldie
◎年  代 2019
◎产  地 美国
◎类  别 剧情
◎语  言 英语
◎上映日期 2019-02-10(柏林国际电影节)
◎IMDb评分  5.9/10 from 129 users
◎IMDb链接  https://www.imdb.com/title/tt7335104
◎豆瓣评分 0/10 from 0 users
◎豆瓣链接 https://movie.douban.com/subject/30428869/
◎片  长 88分钟
◎导  演 萨姆·德容 Sam de Jong
◎编  剧 萨姆·德容 Sam de Jong
◎主  演 Slick Woods
       George Sample III
       丹尼·霍奇 Danny Hoch
       Khris Davis
       玛莎·斯蒂芬妮·布莱克 Marsha Stephanie Blake
       Thaddeus Daniels
       Jazmyn C Dorsey
       Ratnesh Dubey
       Angela Griszell
       David Mohr
       马加 Mugga
       De'Atchra Skerritt


◎标  签 柏林电影节 | Berlinale69 | 美国电影 | P-BerlinF新生代单元

◎简  介  

  Goldie, a precocious teenager in a family shelter, wages war against the system to keep her sisters together while she pursues her dreams of being a dancer. This is a story about displaced youth, ambition, and maintaining your spirit in the face of insurmountable obstacles.

◎获奖情况  

  第69届柏林国际电影节(2019)
  新生代青年单元 最佳影片(提名) 萨姆·德容

Video
ID                                       : 1
Format                                   : AVC
Format/Info                              : Advanced Video Codec
Format profile                           : [email protected]
Format settings                          : CABAC / 4 Ref Frames
Format settings, CABAC                   : Yes
Format settings, Reference frames        : 4 frames
Codec ID                                 : V_MPEG4/ISO/AVC
Duration                                 : 1 h 28 min
Bit rate mode                            : Constant
Bit rate                                 : 9 476 kb/s
Nominal bit rate                         : 10 000 kb/s
Width                                    : 1 920 pixels
Height                                   : 1 040 pixels
Display aspect ratio                     : 1.85:1
Frame rate mode                          : Constant
Frame rate                               : 23.976 (24000/1001) FPS
Color space                              : YUV
Chroma subsampling                       : 4:2:0
Bit depth                                : 8 bits
Scan type                                : Progressive
Bits/(Pixel*Frame)                       : 0.198
Stream size                              : 5.86 GiB (94%)
Default                                  : Yes
Forced                                   : No
Color range                              : Limited
Color primaries                          : BT.709
Transfer characteristics                 : BT.709
Matrix coefficients                      : BT.709

Audio
ID                                       : 2
Format                                   : E-AC-3
Format/Info                              : Enhanced AC-3
Commercial name                          : Dolby Digital Plus
Codec ID                                 : A_EAC3
Duration                                 : 1 h 28 min
Bit rate mode                            : Constant
Bit rate                                 : 640 kb/s
Channel(s)                               : 6 channels
Channel layout                           : L R C LFE Ls Rs
Sampling rate                            : 48.0 kHz
Frame rate                               : 31.250 FPS (1536 SPF)
Compression mode                         : Lossy
Stream size                              : 405 MiB (6%)
Language                                 : English
Service kind                             : Complete Main
Default                                  : Yes
Forced                                   : No

Text #1
ID                                       : 3
Format                                   : UTF-8
Codec ID                                 : S_TEXT/UTF8
Codec ID/Info                            : UTF-8 Plain Text
Duration                                 : 1 h 23 min
Bit rate                                 : 45 b/s
Count of elements                        : 924
Stream size                              : 27.6 KiB (0%)
Language                                 : English
Default                                  : No
Forced                                   : No

Text #2
ID                                       : 4
Format                                   : UTF-8
Codec ID                                 : S_TEXT/UTF8
Codec ID/Info                            : UTF-8 Plain Text
Duration                                 : 1 h 23 min
Bit rate                                 : 49 b/s
Count of elements                        : 998
Stream size                              : 30.4 KiB (0%)
Title                                    : SDH
Language                                 : English
Default                                  : No
Forced                                   : No


悠悠MP4_MP4电影下载_高蒂/黄衣少女梦(港) Goldie.2019.1080p.AMZN.WEBRip.DDP5.1.x264-NTG 6.26GB悠悠MP4_MP4电影下载_高蒂/黄衣少女梦(港) Goldie.2019.1080p.AMZN.WEBRip.DDP5.1.x264-NTG 6.26GB悠悠MP4_MP4电影下载_高蒂/黄衣少女梦(港) Goldie.2019.1080p.AMZN.WEBRip.DDP5.1.x264-NTG 6.26GB


提示:如迅雷下载提示"任务出错"、"因版权无法下载",请尝试【迅雷5】
上传的附件:
最新回复 (0)
返回
本站所有资源均收集自互联网,没有提供影片资源存储, 也未参与录制、上传,若本站收录的资源无意侵犯了您的权益, 请联系邮箱:gogoimgs#gmail.com(#=@)