[2016] [欧美] [剧情] [WEB-1080P] 大海的变化 Sea.Change.2017.1080p.AMZN.WEBRip.DDP2.0.x264-ABM 3.05GB

uump4 1月前 412

帖子完整标题:大海的变化 Sea.Change.2017.1080p.AMZN.WEBRip.DDP2.0.x264-ABM 3.05GB


悠悠MP4_MP4电影下载_大海的变化 Sea.Change.2017.1080p.AMZN.WEBRip.DDP2.0.x264-ABM 3.05GB

◎译  名 大海的变化
◎片  名 Sea Change
◎年  代 2016
◎产  地 美国
◎类  别 剧情
◎语  言 英语
◎上映日期 2017-09-17(美国)
◎IMDb评分  6.2/10 from 443 users
◎IMDb链接  https://www.imdb.com/title/tt5661770
◎豆瓣评分 0/10 from 0 users
◎豆瓣链接 https://movie.douban.com/subject/26834192/
◎导  演 克里斯·格里斯默 Chris Grismer
◎编  剧 Liz Sczudlo
◎主  演 西沃恩·威廉姆斯 Siobhan Williams
       佐伊·德·格朗·梅宗 Zoé De Grand Maison
       基南·特雷西 Keenan Tracey
       斯凯勒·马克斯 Skyler Maxon
       埃米莉·拉德 Emily Rudd
       玛丽亚·迪齐亚 Maria Dizzia


◎简  介  

  故事描述意志坚强的17岁少女Miranda Merchant(Emily Rudd)在父亲死后回到风光秀美的家乡小镇(一座类似楠塔基特岛的海岛镇)与关系疏远的母亲Amelia(Maria Dizzia)一起生活。在那里,她卷入了当地人的明争暗斗、多角恋爱,并且与母亲矛盾重重。但是她很快意识到岛上所有冲突都有同一个背景:传说中危险的海怪——或者说「海上行者」——可能是真的,而且她和她的家庭有许多秘密都与之相关,她自己也和这些神秘的生物有关联。Keenan Tracey扮演少年TJ,是当地最古老的一个塞尔克家族的继承人。Skyler Maxon扮演神秘的坏男孩Leo,是工人阶级普通「镇民」中的一员。Miranda和TJ、Leo陷入一场三角恋。(cr 天涯小筑)

Video
ID                                       : 1
Format                                   : AVC
Format/Info                              : Advanced Video Codec
Format profile                           : [email protected]
Format settings                          : CABAC / 4 Ref Frames
Format settings, CABAC                   : Yes
Format settings, Reference frames        : 4 frames
Codec ID                                 : V_MPEG4/ISO/AVC
Duration                                 : 1 h 22 min
Bit rate                                 : 4 980 kb/s
Width                                    : 1 920 pixels
Height                                   : 1 080 pixels
Display aspect ratio                     : 16:9
Frame rate mode                          : Constant
Frame rate                               : 23.976 (24000/1001) FPS
Color space                              : YUV
Chroma subsampling                       : 4:2:0
Bit depth                                : 8 bits
Scan type                                : Progressive
Bits/(Pixel*Frame)                       : 0.100
Stream size                              : 2.86 GiB (94%)
Language                                 : English
Default                                  : Yes
Forced                                   : No
Color range                              : Limited
Color primaries                          : BT.709
Transfer characteristics                 : BT.709
Matrix coefficients                      : BT.709

Audio
ID                                       : 2
Format                                   : E-AC-3
Format/Info                              : Enhanced AC-3
Commercial name                          : Dolby Digital Plus
Codec ID                                 : A_EAC3
Duration                                 : 1 h 22 min
Bit rate mode                            : Constant
Bit rate                                 : 224 kb/s
Channel(s)                               : 2 channels
Channel layout                           : L R
Sampling rate                            : 48.0 kHz
Frame rate                               : 31.250 FPS (1536 SPF)
Compression mode                         : Lossy
Stream size                              : 132 MiB (4%)
Language                                 : English
Service kind                             : Complete Main
Default                                  : Yes
Forced                                   : No

Text
ID                                       : 3
Format                                   : UTF-8
Codec ID                                 : S_TEXT/UTF8
Codec ID/Info                            : UTF-8 Plain Text
Language                                 : English
Default                                  : No
Forced                                   : No


悠悠MP4_MP4电影下载_大海的变化 Sea.Change.2017.1080p.AMZN.WEBRip.DDP2.0.x264-ABM 3.05GB悠悠MP4_MP4电影下载_大海的变化 Sea.Change.2017.1080p.AMZN.WEBRip.DDP2.0.x264-ABM 3.05GB悠悠MP4_MP4电影下载_大海的变化 Sea.Change.2017.1080p.AMZN.WEBRip.DDP2.0.x264-ABM 3.05GB


提示:如迅雷下载提示"任务出错"、"因版权无法下载",请尝试【迅雷5】
上传的附件:
最新回复 (0)
返回
本站所有资源均收集自互联网,没有提供影片资源存储, 也未参与录制、上传,若本站收录的资源无意侵犯了您的权益, 请联系邮箱:gogoimgs#gmail.com(#=@)