[2016] [其他] [剧情] [WEB-1080P] 一切为了一个女孩 Slam.2016.ITALIAN.1080p.NF.WEBRip.DD5.1.x264-QOQ 2.55GB

uump4 1月前 311

帖子完整标题:一切为了一个女孩 Slam.2016.ITALIAN.1080p.NF.WEBRip.DD5.1.x264-QOQ 2.55GB


悠悠MP4_MP4电影下载_一切为了一个女孩 Slam.2016.ITALIAN.1080p.NF.WEBRip.DD5.1.x264-QOQ 2.55GB

◎译  名 一切为了一个女孩 / Slam
◎片  名 Slam: Tutto per una ragazza
◎年  代 2016
◎产  地 意大利
◎类  别 剧情 / 喜剧 / 爱情
◎语  言 意大利语
◎上映日期 2016-11-20(意大利)
◎IMDb评分 6.1/10 from 975 users
◎IMDb链接 https://www.imdb.com/title/tt4379536
◎豆瓣评分 6.9/10 from 86 users
◎豆瓣链接 https://movie.douban.com/subject/26755259/
◎片  长 100分钟
◎导  演 Andrea Molaioli
◎编  剧 尼克·霍恩比 Nick Hornby / 弗朗西斯科·布鲁尼 Francesco Bruni / 卢多维卡·兰波尔迪 Ludovica Rampoldi / Andrea Molaioli
◎主  演 Ludovico Tersigni
      Barbara Ramella
      杰丝敏·特丽卡 Jasmine Trinca
      卢卡·马里内力 Luca Marinelli
      Fiorenza Tessari
      Pietro Ragusa
      Gianluca Broccatelli
      Fausto Maria Sciarappa
      Caterina Biasiol
      莉迪亚·维塔 Lidia Vitale


◎标  签 意大利 | 意大利电影 | 爱情 | 上海电影节 | 2016 | 喜剧 | 剧情 | 上海电影节2017

◎简  介

  对于16岁的少年山姆而言,滑板就是他的一切。他整日与朋友们一道练习滑板动作,甚至和他的偶像、最优秀的滑板达人托尼也成为了挚友。尽管如此,他真正的梦想却是成为整个家族第一个考上大学的人,在进入大学后再去追逐自己成为职业滑板选手的理想。事实上,他的父母、祖父母都在16岁就为人父母,而他不愿重蹈他们的覆辙。然而,当他遇到艾莉丝时,似乎一切梦想都不再那么重要了……家族命运就像是魔咒一般,而山姆是否能逃出这命运的大手呢?
Video
ID : 1
Format : AVC
Format/Info : Advanced Video Codec
Format profile : [email protected]
Format settings : CABAC / 3 Ref Frames
Format settings, CABAC : Yes
Format settings, Reference frames : 3 frames
Codec ID : V_MPEG4/ISO/AVC
Duration : 1 h 38 min
Bit rate mode : Variable
Bit rate : 3 320 kb/s
Maximum bit rate : 4 980 kb/s
Width : 1 920 pixels
Height : 1 080 pixels
Display aspect ratio : 16:9
Frame rate mode : Constant
Frame rate : 25.000 FPS
Color space : YUV
Chroma subsampling : 4:2:0
Bit depth : 8 bits
Scan type : Progressive
Bits/(Pixel*Frame) : 0.064
Stream size : 2.28 GiB (90%)
Writing library : x264 core 118
Encoding settings : cabac=1 / ref=3 / deblock=1:0:0 / analyse=0x1:0x111 / me=umh / subme=10 / psy=1 / psy_rd=1.00:0.00 / mixed_ref=1 / me_range=24 / chroma_me=1 / trellis=2 / 8x8dct=0 / cqm=0 / deadzone=21,11 / fast_pskip=1 / chroma_qp_offset=-2 / threads=8 / sliced_threads=0 / nr=0 / decimate=1 / interlaced=0 / bluray_compat=0 / constrained_intra=0 / bframes=2 / b_pyramid=0 / b_adapt=2 / b_bias=0 / direct=3 / weightb=1 / open_gop=0 / weightp=2 / keyint=50 / keyint_min=26 / scenecut=0 / intra_refresh=0 / rc_lookahead=0 / rc=2pass / mbtree=1 / bitrate=3320 / ratetol=1.0 / qcomp=0.50 / qpmin=6 / qpmax=51 / qpstep=4 / cplxblur=20.0 / qblur=0.5 / vbv_maxrate=4980 / vbv_bufsize=6640 / nal_hrd=vbr / ip_ratio=1.40 / aq=1:1.00
Default : Yes
Forced : No

Audio
ID : 2
Format : AC-3
Format/Info : Audio Coding 3
Commercial name : Dolby Digital
Codec ID : A_AC3
Duration : 1 h 38 min
Bit rate mode : Constant
Bit rate : 384 kb/s
Channel(s) : 6 channels
Channel layout : L R C LFE Ls Rs
Sampling rate : 48.0 kHz
Frame rate : 31.250 FPS (1536 SPF)
Compression mode : Lossy
Stream size : 272 MiB (10%)
Language : Italian
Service kind : Complete Main
Default : Yes
Forced : No

Text #1
ID : 3
Format : UTF-8
Codec ID : S_TEXT/UTF8
Codec ID/Info : UTF-8 Plain Text
Duration : 1 h 35 min
Bit rate : 51 b/s
Count of elements : 1068
Stream size : 36.3 KiB (0%)
Language : English
Default : No
Forced : No

Text #2
ID : 4
Format : UTF-8
Codec ID : S_TEXT/UTF8
Codec ID/Info : UTF-8 Plain Text
Duration : 1 h 35 min
Bit rate : 57 b/s
Count of elements : 1178
Stream size : 40.0 KiB (0%)
Title : SDH
Language : English
Default : No
Forced : No

Text #3
ID : 5
Format : UTF-8
Codec ID : S_TEXT/UTF8
Codec ID/Info : UTF-8 Plain Text
Duration : 1 h 35 min
Bit rate : 54 b/s
Count of elements : 960
Stream size : 38.3 KiB (0%)
Language : Danish
Default : No
Forced : No

Text #4
ID : 6
Format : UTF-8
Codec ID : S_TEXT/UTF8
Codec ID/Info : UTF-8 Plain Text
Duration : 1 h 35 min
Bit rate : 58 b/s
Count of elements : 1201
Stream size : 41.1 KiB (0%)
Language : German
Default : No
Forced : No

Text #5
ID : 7
Format : UTF-8
Codec ID : S_TEXT/UTF8
Codec ID/Info : UTF-8 Plain Text
Duration : 1 h 35 min
Bit rate : 51 b/s
Count of elements : 1113
Stream size : 36.0 KiB (0%)
Language : Spanish
Default : No
Forced : No

Text #6
ID : 8
Format : UTF-8
Codec ID : S_TEXT/UTF8
Codec ID/Info : UTF-8 Plain Text
Duration : 1 h 35 min
Bit rate : 59 b/s
Count of elements : 1101
Stream size : 41.5 KiB (0%)
Language : French
Default : No
Forced : No

Text #7
ID : 9
Format : UTF-8
Codec ID : S_TEXT/UTF8
Codec ID/Info : UTF-8 Plain Text
Duration : 1 h 34 min
Bit rate : 55 b/s
Count of elements : 1172
Stream size : 38.9 KiB (0%)
Language : Italian
Default : No
Forced : No

Text #8
ID : 10
Format : UTF-8
Codec ID : S_TEXT/UTF8
Codec ID/Info : UTF-8 Plain Text
Duration : 1 h 38 min
Bit rate : 43 b/s
Count of elements : 1505
Stream size : 31.2 KiB (0%)
Language : Japanese
Default : No
Forced : No

Text #9
ID : 11
Format : UTF-8
Codec ID : S_TEXT/UTF8
Codec ID/Info : UTF-8 Plain Text
Duration : 1 h 35 min
Bit rate : 53 b/s
Count of elements : 959
Stream size : 37.3 KiB (0%)
Language : Norwegian Bokmal
Default : No
Forced : No

Text #10
ID : 12
Format : UTF-8
Codec ID : S_TEXT/UTF8
Codec ID/Info : UTF-8 Plain Text
Duration : 1 h 35 min
Bit rate : 53 b/s
Count of elements : 1053
Stream size : 37.1 KiB (0%)
Language : Dutch
Default : No
Forced : No

Text #11
ID : 13
Format : UTF-8
Codec ID : S_TEXT/UTF8
Codec ID/Info : UTF-8 Plain Text
Duration : 1 h 35 min
Bit rate : 44 b/s
Count of elements : 1102
Stream size : 30.8 KiB (0%)
Language : Polish
Default : No
Forced : No

Text #12
ID : 14
Format : UTF-8
Codec ID : S_TEXT/UTF8
Codec ID/Info : UTF-8 Plain Text
Duration : 1 h 35 min
Bit rate : 56 b/s
Count of elements : 1103
Stream size : 39.5 KiB (0%)
Language : Portuguese
Default : No
Forced : No

Text #13
ID : 15
Format : UTF-8
Codec ID : S_TEXT/UTF8
Codec ID/Info : UTF-8 Plain Text
Duration : 1 h 35 min
Bit rate : 55 b/s
Count of elements : 1114
Stream size : 38.8 KiB (0%)
Language : Romanian
Default : No
Forced : No

Text #14
ID : 16
Format : UTF-8
Codec ID : S_TEXT/UTF8
Codec ID/Info : UTF-8 Plain Text
Duration : 1 h 35 min
Bit rate : 53 b/s
Count of elements : 960
Stream size : 37.6 KiB (0%)
Language : Swedish
Default : No
Forced : No

Text #15
ID : 17
Format : UTF-8
Codec ID : S_TEXT/UTF8
Codec ID/Info : UTF-8 Plain Text
Duration : 1 h 35 min
Bit rate : 55 b/s
Count of elements : 1103
Stream size : 39.1 KiB (0%)
Language : Turkish
Default : No
Forced : No

悠悠MP4_MP4电影下载_一切为了一个女孩 Slam.2016.ITALIAN.1080p.NF.WEBRip.DD5.1.x264-QOQ 2.55GB悠悠MP4_MP4电影下载_一切为了一个女孩 Slam.2016.ITALIAN.1080p.NF.WEBRip.DD5.1.x264-QOQ 2.55GB悠悠MP4_MP4电影下载_一切为了一个女孩 Slam.2016.ITALIAN.1080p.NF.WEBRip.DD5.1.x264-QOQ 2.55GB悠悠MP4_MP4电影下载_一切为了一个女孩 Slam.2016.ITALIAN.1080p.NF.WEBRip.DD5.1.x264-QOQ 2.55GB悠悠MP4_MP4电影下载_一切为了一个女孩 Slam.2016.ITALIAN.1080p.NF.WEBRip.DD5.1.x264-QOQ 2.55GB悠悠MP4_MP4电影下载_一切为了一个女孩 Slam.2016.ITALIAN.1080p.NF.WEBRip.DD5.1.x264-QOQ 2.55GB


提示:如迅雷下载提示"任务出错"、"因版权无法下载",请尝试【迅雷5】
上传的附件:
最新回复 (0)
返回
本站所有资源均收集自互联网,没有提供影片资源存储, 也未参与录制、上传,若本站收录的资源无意侵犯了您的权益, 请联系邮箱:gogoimgs#gmail.com(#=@)