[2019] [欧美] [动作] [WEB-1080P] 唇裂/断唇 Split.Lip.2019.1080p.AMZN.WEBRip.DDP5.1.x264-CM 3.95GB

uump4 1月前 641

帖子完整标题:唇裂/断唇 Split.Lip.2019.1080p.AMZN.WEBRip.DDP5.1.x264-CM 3.95GB


悠悠MP4_MP4电影下载_唇裂/断唇 Split.Lip.2019.1080p.AMZN.WEBRip.DDP5.1.x264-CM 3.95GB

◎译  名 唇裂 / 断唇
◎片  名 Split Lip
◎年  代 2019
◎产  地 美国
◎类  别 动作
◎语  言 英语
◎上映日期 2019-01-18(美国)
◎IMDb评分  3.5/10 from 192 users
◎IMDb链接  https://www.imdb.com/title/tt5475678
◎豆瓣评分 0/10 from 0 users
◎豆瓣链接 https://movie.douban.com/subject/33385309/
◎片  长 100分钟
◎导  演 Christopher Sheffield
◎编  剧 Christopher Sheffield
◎主  演 Jax Menez Atwell
       DeJean Brown
       Maryam Cné
       Mackenzie Coffman
       Matthew Coleman
       Drue Schaefer Crookston
       Mike Dolphy
       Kellen Garner
       Eli Godfrey
       大卫·艾伦·格拉夫 David Alan Graf


◎简  介  

  在合同杀手的地下世界里,错误是不能容忍的.当一个错误让她去执行一个不可靠的任务时,她会发现一个残酷的雇佣兵,一个冰冷的外表。被她的前导师“德让布朗”和他的精神病专家名册|她与一个神秘的陌生人和他的妹妹结成了不太可能的联盟,因为她与时间赛跑,以智慧战胜黑暗势力,夺取她的生命。@神马影院

Video
ID                                       : 1
Format                                   : AVC
Format/Info                              : Advanced Video Codec
Format profile                           : [email protected]
Format settings                          : CABAC / 4 Ref Frames
Format settings, CABAC                   : Yes
Format settings, Reference frames        : 4 frames
Codec ID                                 : V_MPEG4/ISO/AVC
Duration                                 : 1 h 40 min
Bit rate                                 : 4 984 kb/s
Width                                    : 1 800 pixels
Height                                   : 1 080 pixels
Display aspect ratio                     : 5:3
Frame rate mode                          : Constant
Frame rate                               : 23.976 (24000/1001) FPS
Color space                              : YUV
Chroma subsampling                       : 4:2:0
Bit depth                                : 8 bits
Scan type                                : Progressive
Bits/(Pixel*Frame)                       : 0.107
Stream size                              : 3.50 GiB (89%)
Default                                  : Yes
Forced                                   : No
Color range                              : Limited
Color primaries                          : BT.709
Transfer characteristics                 : BT.709
Matrix coefficients                      : BT.709

Audio
ID                                       : 3
Format                                   : E-AC-3
Format/Info                              : Enhanced AC-3
Commercial name                          : Dolby Digital Plus
Codec ID                                 : A_EAC3
Duration                                 : 1 h 40 min
Bit rate mode                            : Constant
Bit rate                                 : 640 kb/s
Channel(s)                               : 6 channels
Channel layout                           : L R C LFE Ls Rs
Sampling rate                            : 48.0 kHz
Frame rate                               : 31.250 FPS (1536 SPF)
Compression mode                         : Lossy
Stream size                              : 461 MiB (11%)
Service kind                             : Complete Main
Default                                  : Yes
Forced                                   : No

Text
ID                                       : 2
Format                                   : UTF-8
Codec ID                                 : S_TEXT/UTF8
Codec ID/Info                            : UTF-8 Plain Text
Duration                                 : 1 h 39 min
Bit rate                                 : 35 b/s
Count of elements                        : 1202
Stream size                              : 26.1 KiB (0%)
Title                                    : English [SDH]
Language                                 : English
Default                                  : No
Forced                                   : No


悠悠MP4_MP4电影下载_唇裂/断唇 Split.Lip.2019.1080p.AMZN.WEBRip.DDP5.1.x264-CM 3.95GB悠悠MP4_MP4电影下载_唇裂/断唇 Split.Lip.2019.1080p.AMZN.WEBRip.DDP5.1.x264-CM 3.95GB悠悠MP4_MP4电影下载_唇裂/断唇 Split.Lip.2019.1080p.AMZN.WEBRip.DDP5.1.x264-CM 3.95GB


提示:如迅雷下载提示"任务出错"、"因版权无法下载",请尝试【迅雷5】
上传的附件:
最新回复 (0)
返回
本站所有资源均收集自互联网,没有提供影片资源存储, 也未参与录制、上传,若本站收录的资源无意侵犯了您的权益, 请联系邮箱:gogoimgs#gmail.com(#=@)