[2018] [韩国] [剧情] [WEB-1080P] 德九 Stand.By.Me.2018.KOREAN.1080p.NF.WEBRip.AAC2.0.x264-INFLATE 5.42GB

uump4 1月前 433

帖子完整标题:德九 Stand.By.Me.2018.KOREAN.1080p.NF.WEBRip.AAC2.0.x264-INFLATE 5.42GB


悠悠MP4_MP4电影下载_德九 Stand.By.Me.2018.KOREAN.1080p.NF.WEBRip.AAC2.0.x264-INFLATE 5.42GB

◎译  名 德九 / Stand By Me / 德求 / 最后的礼物(台)
◎片  名 ??
◎年  代 2018
◎产  地 韩国
◎类  别 剧情 / 家庭
◎语  言 韩语
◎上映日期 2018-04-05(韩国)
◎IMDb评分  6.8/10 from 114 users
◎IMDb链接  https://www.imdb.com/title/tt8383596
◎豆瓣评分 7.9/10 from 3277 users
◎豆瓣链接 https://movie.douban.com/subject/30146843/
◎片  长 91分钟
◎导  演 房秀吟 Soo-in Bang
◎编  剧 房秀吟 Soo-in Bang
◎主  演 李顺载 Soon-jae Lee
       郑智勋 Jung Ji-hoon
       张光 Gwang Jang
       成秉淑 Byoung-Sook Sung
       车顺裴 Cha Soon-bae
       金广植 Kwang-sik Kim
       柳圣贤 Ryoo Seong-hyeon
       郑基燮 Gi-seop Jeong
       閔頌雅 Songa Yun
       金炳哲 Byeong-cheol Kim
       韩宝贝 Bo-bae Han


◎标  签 韩国 | 亲情 | 催泪 | 温情 | 家庭 | 剧情 | 韩影 | 2018

◎简  介  

  七岁的德九(郑志薰 饰)与妹妹德熙,一起和爷爷(李顺载 饰)住在一个小村庄。几年前,德九的爸爸因为交通事故过世,备受冲击的妈妈后来也不久于人世。爷爷只能四处打零工,努力扶养两个孙子,但甚至连想给德九买台玩具车都负担不起。
  当德九将进小学时,爷爷发现自己时日不多,担心年幼 的德九无法照顾自己和妹妹,爷爷准备了最后的礼物要给他两个孙子……

Video
ID                                       : 1
Format                                   : AVC
Format/Info                              : Advanced Video Codec
Format profile                           : [email protected]
Format settings                          : CABAC / 4 Ref Frames
Format settings, CABAC                   : Yes
Format settings, Reference frames        : 4 frames
Codec ID                                 : V_MPEG4/ISO/AVC
Duration                                 : 1 h 31 min
Bit rate                                 : 8 355 kb/s
Width                                    : 1 920 pixels
Height                                   : 816 pixels
Display aspect ratio                     : 2.35:1
Frame rate mode                          : Constant
Frame rate                               : 23.976 (24000/1001) FPS
Color space                              : YUV
Chroma subsampling                       : 4:2:0
Bit depth                                : 8 bits
Scan type                                : Progressive
Bits/(Pixel*Frame)                       : 0.222
Stream size                              : 5.34 GiB (98%)
Language                                 : English
Default                                  : Yes
Forced                                   : No
Color range                              : Limited
Color primaries                          : BT.709
Transfer characteristics                 : BT.709
Matrix coefficients                      : BT.709

Audio
ID                                       : 2
Format                                   : AAC LC
Format/Info                              : Advanced Audio Codec Low Complexity
Codec ID                                 : A_AAC-2
Duration                                 : 1 h 31 min
Bit rate                                 : 125 kb/s
Channel(s)                               : 2 channels
Channel layout                           : L R
Sampling rate                            : 48.0 kHz
Frame rate                               : 46.875 FPS (1024 SPF)
Compression mode                         : Lossy
Stream size                              : 82.0 MiB (1%)
Title                                    : Korean
Language                                 : Korean
Default                                  : Yes
Forced                                   : No

Text
ID                                       : 3
Format                                   : UTF-8
Codec ID                                 : S_TEXT/UTF8
Codec ID/Info                            : UTF-8 Plain Text
Duration                                 : 1 h 27 min
Bit rate                                 : 33 b/s
Count of elements                        : 946
Stream size                              : 21.5 KiB (0%)
Title                                    : English [CC]
Language                                 : English
Default                                  : Yes
Forced                                   : No


悠悠MP4_MP4电影下载_德九 Stand.By.Me.2018.KOREAN.1080p.NF.WEBRip.AAC2.0.x264-INFLATE 5.42GB


提示:如迅雷下载提示"任务出错"、"因版权无法下载",请尝试【迅雷5】
上传的附件:
最新回复 (0)
返回
本站所有资源均收集自互联网,没有提供影片资源存储, 也未参与录制、上传,若本站收录的资源无意侵犯了您的权益, 请联系邮箱:gogoimgs#gmail.com(#=@)