[2010] [泰国] [惊悚] [WEB-1080P] 惨死 Still.2010.THAI.1080p.NF.WEBRip.DD2.0.x264-AJP69 3.84GB

uump4 1月前 367

帖子完整标题:惨死 Still.2010.THAI.1080p.NF.WEBRip.DD2.0.x264-AJP69 3.84GB


悠悠MP4_MP4电影下载_惨死 Still.2010.THAI.1080p.NF.WEBRip.DD2.0.x264-AJP69 3.84GB

◎译  名 惨死 / Die a Violent Death / Died / Still / Tai hong / 鬼4忌(台)
◎片  名 ??????
◎年  代 2010
◎产  地 泰国
◎类  别 惊悚 / 恐怖
◎语  言 泰语
◎上映日期 2010-01-28(泰国)
◎IMDb评分 4.3/10 from 266 users
◎IMDb链接 https://www.imdb.com/title/tt1609160
◎豆瓣评分 5.5/10 from 2391 users
◎豆瓣链接 https://movie.douban.com/subject/4729828/
◎片  长 104分钟
◎导  演 普安农 Poj Arnon / Chatchai Katenut / Tanwarin Sukkhapisit / Manussa Vorasingha
◎主  演 麦察蓉普拉 Mai Charoenpura
      Akara Amarttayakul
      苏帕克森·柴蒙蔻 Sukpaksorn Chaiyamongkol
      唐宸禹 TAE
      Uttaporn Teemakorn
      Wiradit Srimalai
      Pimolrat Pisalayabuth
      Kachapa Toncharoen
      Vasana Chalakorn
      Ratchanont Sukpragawp
      阿丽莎拉·唐伯妮苏 Arisara Thongborisut


◎标  签 恐怖 | 泰国 | 泰国电影 | 惊悚 | 恐怖片 | 2010 | 泰国恐怖片 | 恐怖电影

◎简  介

  《失火夜店的丧命焦尸》:除夕夜,时尚男女云集Santaka夜店狂欢,却遭遇大火,致令死伤者众多。青年阿姆(Akara Amarttayakul 饰)在灾难中失去女友帕塔玛,因此痛苦不堪。灾难的突然和悲惨,使得死难者心有不甘,久久徘徊人间;《死刑监狱的索命冤鬼》:泰国某监狱内,每到夜晚就会有一名身穿红色囚服的男性鬼魂出现,他与囚犯们说话,时刻骚扰着他们的神经,囚犯们不惜以自杀的极端手段来逃避;《公寓顶楼的水箱腐尸》:某幢大厦发生一起凶杀案,凶手趁人不备,将女尸仍在顶楼的水槽内。饮用此水的居民接连遭遇奇怪现象,凶手的噩梦远远没有结束;《求欢宾馆的肢解藏尸》:两男一女到情人旅馆寻欢作乐,殊不知他们的房间内藏有一具女尸。夜深人静,诡异恐怖事件频发……
  本片4则故事均取材自泰国真实的新闻事件。
Video
ID : 1
Format : AVC
Format/Info : Advanced Video Codec
Format profile : [email protected]
Format settings : CABAC / 3 Ref Frames
Format settings, CABAC : Yes
Format settings, Reference frames : 3 frames
Codec ID : V_MPEG4/ISO/AVC
Duration : 1 h 40 min
Bit rate mode : Variable
Bit rate : 5 360 kb/s
Maximum bit rate : 8 040 kb/s
Width : 1 920 pixels
Height : 1 080 pixels
Display aspect ratio : 16:9
Frame rate mode : Constant
Frame rate : 24.000 FPS
Color space : YUV
Chroma subsampling : 4:2:0
Bit depth : 8 bits
Scan type : Progressive
Bits/(Pixel*Frame) : 0.108
Stream size : 3.74 GiB (98%)
Writing library : x264 core 148 r2715 7e75228
Encoding settings : cabac=1 / ref=3 / deblock=1:0:0 / analyse=0x1:0x111 / me=umh / subme=10 / psy=1 / psy_rd=1.00:0.00 / mixed_ref=1 / me_range=24 / chroma_me=1 / trellis=2 / 8x8dct=0 / cqm=0 / deadzone=21,11 / fast_pskip=1 / chroma_qp_offset=-2 / threads=8 / lookahead_threads=1 / sliced_threads=0 / nr=0 / decimate=1 / interlaced=0 / bluray_compat=0 / stitchable=1 / constrained_intra=0 / bframes=2 / b_pyramid=0 / b_adapt=2 / b_bias=0 / direct=3 / weightb=1 / open_gop=0 / weightp=2 / keyint=48 / keyint_min=25 / scenecut=0 / intra_refresh=0 / rc_lookahead=48 / rc=2pass / mbtree=1 / bitrate=5360 / ratetol=1.0 / qcomp=0.50 / qpmin=6 / qpmax=51 / qpstep=4 / cplxblur=20.0 / qblur=0.5 / vbv_maxrate=8040 / vbv_bufsize=10720 / nal_hrd=vbr / filler=0 / ip_ratio=1.40 / aq=1:1.00
Default : Yes
Forced : No

Audio
ID : 2
Format : E-AC-3
Format/Info : Enhanced AC-3
Commercial name : Dolby Digital Plus
Codec ID : A_EAC3
Duration : 1 h 40 min
Bit rate mode : Constant
Bit rate : 128 kb/s
Channel(s) : 2 channels
Channel layout : L R
Sampling rate : 48.0 kHz
Frame rate : 31.250 FPS (1536 SPF)
Compression mode : Lossy
Stream size : 91.8 MiB (2%)
Title : Thai
Language : Thai
Service kind : Complete Main
Default : Yes
Forced : No

Text #1
ID : 3
Format : UTF-8
Codec ID : S_TEXT/UTF8
Codec ID/Info : UTF-8 Plain Text
Duration : 1 h 35 min
Bit rate : 23 b/s
Count of elements : 607
Stream size : 16.4 KiB (0%)
Language : English
Default : No
Forced : No

Text #2
ID : 4
Format : UTF-8
Codec ID : S_TEXT/UTF8
Codec ID/Info : UTF-8 Plain Text
Duration : 1 h 34 min
Bit rate : 73 b/s
Count of elements : 778
Stream size : 50.7 KiB (0%)
Title : SDH
Language : Thai
Default : No
Forced : No

Text #3
ID : 5
Format : UTF-8
Codec ID : S_TEXT/UTF8
Codec ID/Info : UTF-8 Plain Text
Duration : 1 h 35 min
Bit rate : 20 b/s
Count of elements : 604
Stream size : 14.1 KiB (0%)
Title : Simplified
Language : Chinese
Default : No
Forced : No

Text #4
ID : 6
Format : UTF-8
Codec ID : S_TEXT/UTF8
Codec ID/Info : UTF-8 Plain Text
Duration : 1 h 35 min
Bit rate : 20 b/s
Count of elements : 604
Stream size : 14.4 KiB (0%)
Title : Traditional
Language : Chinese
Default : No
Forced : No

悠悠MP4_MP4电影下载_惨死 Still.2010.THAI.1080p.NF.WEBRip.DD2.0.x264-AJP69 3.84GB悠悠MP4_MP4电影下载_惨死 Still.2010.THAI.1080p.NF.WEBRip.DD2.0.x264-AJP69 3.84GB悠悠MP4_MP4电影下载_惨死 Still.2010.THAI.1080p.NF.WEBRip.DD2.0.x264-AJP69 3.84GB


提示:如迅雷下载提示"任务出错"、"因版权无法下载",请尝试【迅雷5】
上传的附件:
最新回复 (0)
返回
本站所有资源均收集自互联网,没有提供影片资源存储, 也未参与录制、上传,若本站收录的资源无意侵犯了您的权益, 请联系邮箱:gogoimgs#gmail.com(#=@)