[2012] [欧美] [剧情] [WEB-1080P] 女孩 The.Girl.2012.SPANISH.1080p.AMZN.WEBRip.DDP5.1.x264-TrollHD 6.90GB

uump4 1月前 295

帖子完整标题:女孩 The.Girl.2012.SPANISH.1080p.AMZN.WEBRip.DDP5.1.x264-TrollHD 6.90GB


悠悠MP4_MP4电影下载_女孩 The.Girl.2012.SPANISH.1080p.AMZN.WEBRip.DDP5.1.x264-TrollHD 6.90GB

◎译  名 女孩
◎片  名 The Girl
◎年  代 2012
◎产  地 美国
◎类  别 剧情
◎语  言 西班牙语 / 英语
◎上映日期 2012-12-14
◎IMDb评分  6.2/10 from 1178 users
◎IMDb链接  https://www.imdb.com/title/tt1127883
◎豆瓣评分 7.1/10 from 91 users
◎豆瓣链接 https://movie.douban.com/subject/3532017/
◎片  长 95分钟
◎导  演 David Riker
◎编  剧 David Riker
◎主  演 艾比·考尼什 Abbie Cornish
       威尔·帕顿 Will Patton
       Giovanna Zacarías


◎标  签 AbbieCornish | 美国 | 美国电影 | 2012 | 剧情 | 青春 | 温情 | US

◎简  介  

  A young Texan mother who loses her child to foster care begins smuggling Mexicans across the border.

Video
ID                                       : 1
Format                                   : AVC
Format/Info                              : Advanced Video Codec
Format profile                           : [email protected]
Format settings                          : CABAC / 4 Ref Frames
Format settings, CABAC                   : Yes
Format settings, Reference frames        : 4 frames
Codec ID                                 : V_MPEG4/ISO/AVC
Duration                                 : 1 h 34 min
Bit rate mode                            : Variable
Bit rate                                 : 9 863 kb/s
Maximum bit rate                         : 15.0 Mb/s
Width                                    : 1 920 pixels
Height                                   : 1 080 pixels
Display aspect ratio                     : 16:9
Frame rate mode                          : Constant
Frame rate                               : 23.976 (24000/1001) FPS
Color space                              : YUV
Chroma subsampling                       : 4:2:0
Bit depth                                : 8 bits
Scan type                                : Progressive
Bits/(Pixel*Frame)                       : 0.198
Stream size                              : 6.48 GiB (94%)
Default                                  : Yes
Forced                                   : No
Color range                              : Limited
Color primaries                          : BT.709
Transfer characteristics                 : BT.709
Matrix coefficients                      : BT.709

Audio
ID                                       : 2
Format                                   : E-AC-3
Format/Info                              : Enhanced AC-3
Commercial name                          : Dolby Digital Plus
Codec ID                                 : A_EAC3
Duration                                 : 1 h 34 min
Bit rate mode                            : Constant
Bit rate                                 : 640 kb/s
Channel(s)                               : 6 channels
Channel layout                           : L R C LFE Ls Rs
Sampling rate                            : 48.0 kHz
Frame rate                               : 31.250 FPS (1536 SPF)
Compression mode                         : Lossy
Stream size                              : 431 MiB (6%)
Language                                 : Spanish
Service kind                             : Complete Main
Default                                  : Yes
Forced                                   : No

Text
ID                                       : 3
Format                                   : UTF-8
Codec ID                                 : S_TEXT/UTF8
Codec ID/Info                            : UTF-8 Plain Text
Duration                                 : 1 h 31 min
Bit rate                                 : 16 b/s
Count of elements                        : 453
Stream size                              : 11.1 KiB (0%)
Language                                 : English
Default                                  : No
Forced                                   : No


悠悠MP4_MP4电影下载_女孩 The.Girl.2012.SPANISH.1080p.AMZN.WEBRip.DDP5.1.x264-TrollHD 6.90GB悠悠MP4_MP4电影下载_女孩 The.Girl.2012.SPANISH.1080p.AMZN.WEBRip.DDP5.1.x264-TrollHD 6.90GB悠悠MP4_MP4电影下载_女孩 The.Girl.2012.SPANISH.1080p.AMZN.WEBRip.DDP5.1.x264-TrollHD 6.90GB


提示:如迅雷下载提示"任务出错"、"因版权无法下载",请尝试【迅雷5】
上传的附件:
最新回复 (0)
返回
本站所有资源均收集自互联网,没有提供影片资源存储, 也未参与录制、上传,若本站收录的资源无意侵犯了您的权益, 请联系邮箱:gogoimgs#gmail.com(#=@)