[2018] [其他] [剧情] [WEB-1080P] 警告 The.Warning.2018.SPANISH.1080p.NF.WEBRip.DDP5.1.x264-NTG 2.88GB

uump4 1月前 255

帖子完整标题:警告 The.Warning.2018.SPANISH.1080p.NF.WEBRip.DDP5.1.x264-NTG 2.88GB


悠悠MP4_MP4电影下载_警告 The.Warning.2018.SPANISH.1080p.NF.WEBRip.DDP5.1.x264-NTG 2.88GB

◎译  名 警告 / The warning / 恐吓 / 数字预警 / 死亡公式 / 绝命警告信 / 致命警告
◎片  名 El aviso
◎年  代 2018
◎产  地 西班牙
◎类  别 剧情 / 惊悚
◎语  言 西班牙语
◎上映日期 2018-03-23(西班牙) / 2019-03-29(中国大陆)
◎IMDb评分  5.9/10 from 4106 users
◎IMDb链接  https://www.imdb.com/title/tt3711510
◎豆瓣评分 5.5/10 from 2676 users
◎豆瓣链接 https://movie.douban.com/subject/27132728/
◎片  长 92分钟
◎导  演 丹尼尔·卡尔帕索罗 Daniel Calparsoro
◎编  剧 克里斯·斯帕林 Chris Sparling / 帕西·阿米祖加 Patxi Amezcua
◎主  演 劳尔·阿雷瓦洛 Raúl Arévalo
       奥拉·加里多 Aura Garrido
       雨果·阿布斯 Hugo Arbues
       贝伦·奎斯塔 Belén Cuesta
       安东尼奥·德琴特 Antonio Dechent
       埃托尔·卢纳 Aitor Luna
       帕特里夏·维柯 Patricia Vico
       路易斯·卡叶赫 Luis Callejo
       胡丽叶塔·塞拉诺 Julieta Serrano
       豪尔赫·乌松 Jorge Usón


◎标  签 西班牙 | 悬疑 | 惊悚 | 烧脑 | 2018 | 剧情 | 奇幻 | 犯罪

◎简  介  

  在某间加油站的便利商店,每隔一段时间就会发生凶杀案,这是随机事件?还是神秘的巧合?在又一次凶杀案发生之后,一位天才数学家终于发现反转命运的秘密,竟然藏在一串数字里。他依循神秘的数字线索发掘真相,试图挽救下一个受害者,一个十岁小男孩的生命,但随着警告信的日期接近,他还有机会拯救人命吗?

Video
ID                                       : 1
Format                                   : AVC
Format/Info                              : Advanced Video Codec
Format profile                           : [email protected]
Format settings                          : CABAC / 3 Ref Frames
Format settings, CABAC                   : Yes
Format settings, Reference frames        : 3 frames
Codec ID                                 : V_MPEG4/ISO/AVC
Duration                                 : 1 h 32 min
Bit rate mode                            : Variable
Bit rate                                 : 3 830 kb/s
Maximum bit rate                         : 5 745 kb/s
Width                                    : 1 920 pixels
Height                                   : 1 080 pixels
Display aspect ratio                     : 16:9
Frame rate mode                          : Constant
Frame rate                               : 24.000 FPS
Color space                              : YUV
Chroma subsampling                       : 4:2:0
Bit depth                                : 8 bits
Scan type                                : Progressive
Bits/(Pixel*Frame)                       : 0.077
Stream size                              : 2.46 GiB (86%)
Writing library                          : x264 core 148 r2715 7e75228
Encoding settings                        : cabac=1 / ref=3 / deblock=1:0:0 / analyse=0x1:0x111 / me=umh / subme=10 / psy=1 / psy_rd=1.00:0.00 / mixed_ref=1 / me_range=24 / chroma_me=1 / trellis=2 / 8x8dct=0 / cqm=0 / deadzone=21,11 / fast_pskip=1 / chroma_qp_offset=-2 / threads=8 / lookahead_threads=1 / sliced_threads=0 / nr=0 / decimate=1 / interlaced=0 / bluray_compat=0 / stitchable=1 / constrained_intra=0 / bframes=2 / b_pyramid=0 / b_adapt=2 / b_bias=0 / direct=3 / weightb=1 / open_gop=0 / weightp=2 / keyint=48 / keyint_min=25 / scenecut=0 / intra_refresh=0 / rc_lookahead=48 / rc=2pass / mbtree=1 / bitrate=3830 / ratetol=1.0 / qcomp=0.50 / qpmin=6 / qpmax=51 / qpstep=4 / cplxblur=20.0 / qblur=0.5 / vbv_maxrate=5745 / vbv_bufsize=7660 / nal_hrd=vbr / filler=0 / ip_ratio=1.40 / aq=1:1.00
Default                                  : Yes
Forced                                   : No

Audio
ID                                       : 2
Format                                   : E-AC-3
Format/Info                              : Enhanced AC-3
Commercial name                          : Dolby Digital Plus
Codec ID                                 : A_EAC3
Duration                                 : 1 h 32 min
Bit rate mode                            : Constant
Bit rate                                 : 640 kb/s
Channel(s)                               : 6 channels
Channel layout                           : L R C LFE Ls Rs
Sampling rate                            : 48.0 kHz
Frame rate                               : 31.250 FPS (1536 SPF)
Compression mode                         : Lossy
Stream size                              : 424 MiB (14%)
Language                                 : Spanish
Service kind                             : Complete Main
Default                                  : Yes
Forced                                   : No

Text #1
ID                                       : 3
Format                                   : UTF-8
Codec ID                                 : S_TEXT/UTF8
Codec ID/Info                            : UTF-8 Plain Text
Duration                                 : 1 h 28 min
Bit rate                                 : 40 b/s
Count of elements                        : 824
Stream size                              : 25.9 KiB (0%)
Language                                 : English
Default                                  : Yes
Forced                                   : No

Text #2
ID                                       : 4
Format                                   : UTF-8
Codec ID                                 : S_TEXT/UTF8
Codec ID/Info                            : UTF-8 Plain Text
Duration                                 : 1 h 26 min
Bit rate                                 : 69 b/s
Count of elements                        : 835
Stream size                              : 44.1 KiB (0%)
Language                                 : Arabic
Default                                  : No
Forced                                   : No

Text #3
ID                                       : 5
Format                                   : UTF-8
Codec ID                                 : S_TEXT/UTF8
Codec ID/Info                            : UTF-8 Plain Text
Duration                                 : 1 h 28 min
Bit rate                                 : 35 b/s
Count of elements                        : 831
Stream size                              : 22.9 KiB (0%)
Language                                 : Danish
Default                                  : No
Forced                                   : No

Text #4
ID                                       : 6
Format                                   : UTF-8
Codec ID                                 : S_TEXT/UTF8
Codec ID/Info                            : UTF-8 Plain Text
Duration                                 : 1 h 28 min
Bit rate                                 : 36 b/s
Count of elements                        : 829
Stream size                              : 23.2 KiB (0%)
Language                                 : German
Default                                  : No
Forced                                   : No

Text #5
ID                                       : 7
Format                                   : UTF-8
Codec ID                                 : S_TEXT/UTF8
Codec ID/Info                            : UTF-8 Plain Text
Duration                                 : 1 h 28 min
Bit rate                                 : 42 b/s
Count of elements                        : 865
Stream size                              : 27.7 KiB (0%)
Title                                    : European SDH
Language                                 : Spanish
Default                                  : No
Forced                                   : No

Text #6
ID                                       : 8
Format                                   : UTF-8
Codec ID                                 : S_TEXT/UTF8
Codec ID/Info                            : UTF-8 Plain Text
Duration                                 : 1 h 28 min
Bit rate                                 : 35 b/s
Count of elements                        : 687
Stream size                              : 23.1 KiB (0%)
Language                                 : Finnish
Default                                  : No
Forced                                   : No

Text #7
ID                                       : 9
Format                                   : UTF-8
Codec ID                                 : S_TEXT/UTF8
Codec ID/Info                            : UTF-8 Plain Text
Duration                                 : 1 h 26 min
Bit rate                                 : 37 b/s
Count of elements                        : 834
Stream size                              : 23.7 KiB (0%)
Language                                 : French
Default                                  : No
Forced                                   : No

Text #8
ID                                       : 10
Format                                   : UTF-8
Codec ID                                 : S_TEXT/UTF8
Codec ID/Info                            : UTF-8 Plain Text
Duration                                 : 1 h 28 min
Bit rate                                 : 63 b/s
Count of elements                        : 832
Stream size                              : 41.1 KiB (0%)
Language                                 : Hebrew
Default                                  : No
Forced                                   : No

Text #9
ID                                       : 11
Format                                   : UTF-8
Codec ID                                 : S_TEXT/UTF8
Codec ID/Info                            : UTF-8 Plain Text
Duration                                 : 1 h 28 min
Bit rate                                 : 38 b/s
Count of elements                        : 827
Stream size                              : 24.8 KiB (0%)
Language                                 : Italian
Default                                  : No
Forced                                   : No

Text #10
ID                                       : 12
Format                                   : UTF-8
Codec ID                                 : S_TEXT/UTF8
Codec ID/Info                            : UTF-8 Plain Text
Duration                                 : 1 h 28 min
Bit rate                                 : 36 b/s
Count of elements                        : 829
Stream size                              : 23.3 KiB (0%)
Language                                 : Norwegian Bokmal
Default                                  : No
Forced                                   : No

Text #11
ID                                       : 13
Format                                   : UTF-8
Codec ID                                 : S_TEXT/UTF8
Codec ID/Info                            : UTF-8 Plain Text
Duration                                 : 1 h 28 min
Bit rate                                 : 37 b/s
Count of elements                        : 813
Stream size                              : 24.2 KiB (0%)
Language                                 : Dutch
Default                                  : No
Forced                                   : No

Text #12
ID                                       : 14
Format                                   : UTF-8
Codec ID                                 : S_TEXT/UTF8
Codec ID/Info                            : UTF-8 Plain Text
Duration                                 : 1 h 28 min
Bit rate                                 : 34 b/s
Count of elements                        : 823
Stream size                              : 22.2 KiB (0%)
Language                                 : Polish
Default                                  : No
Forced                                   : No

Text #13
ID                                       : 15
Format                                   : UTF-8
Codec ID                                 : S_TEXT/UTF8
Codec ID/Info                            : UTF-8 Plain Text
Duration                                 : 1 h 28 min
Bit rate                                 : 39 b/s
Count of elements                        : 834
Stream size                              : 25.3 KiB (0%)
Language                                 : Portuguese
Default                                  : No
Forced                                   : No

Text #14
ID                                       : 16
Format                                   : UTF-8
Codec ID                                 : S_TEXT/UTF8
Codec ID/Info                            : UTF-8 Plain Text
Duration                                 : 1 h 28 min
Bit rate                                 : 39 b/s
Count of elements                        : 829
Stream size                              : 25.7 KiB (0%)
Title                                    : Brazilian
Language                                 : Portuguese
Default                                  : No
Forced                                   : No

Text #15
ID                                       : 17
Format                                   : UTF-8
Codec ID                                 : S_TEXT/UTF8
Codec ID/Info                            : UTF-8 Plain Text
Duration                                 : 1 h 28 min
Bit rate                                 : 38 b/s
Count of elements                        : 828
Stream size                              : 25.0 KiB (0%)
Language                                 : Romanian
Default                                  : No
Forced                                   : No

Text #16
ID                                       : 18
Format                                   : UTF-8
Codec ID                                 : S_TEXT/UTF8
Codec ID/Info                            : UTF-8 Plain Text
Duration                                 : 1 h 28 min
Bit rate                                 : 37 b/s
Count of elements                        : 825
Stream size                              : 24.1 KiB (0%)
Language                                 : Swedish
Default                                  : No
Forced                                   : No

Text #17
ID                                       : 19
Format                                   : UTF-8
Codec ID                                 : S_TEXT/UTF8
Codec ID/Info                            : UTF-8 Plain Text
Duration                                 : 1 h 28 min
Bit rate                                 : 99 b/s
Count of elements                        : 828
Stream size                              : 64.1 KiB (0%)
Language                                 : Thai
Default                                  : No
Forced                                   : No

Text #18
ID                                       : 20
Format                                   : UTF-8
Codec ID                                 : S_TEXT/UTF8
Codec ID/Info                            : UTF-8 Plain Text
Duration                                 : 1 h 28 min
Bit rate                                 : 39 b/s
Count of elements                        : 826
Stream size                              : 25.3 KiB (0%)
Language                                 : Turkish
Default                                  : No
Forced                                   : No

Text #19
ID                                       : 21
Format                                   : UTF-8
Codec ID                                 : S_TEXT/UTF8
Codec ID/Info                            : UTF-8 Plain Text
Duration                                 : 1 h 28 min
Bit rate                                 : 34 b/s
Count of elements                        : 828
Stream size                              : 22.1 KiB (0%)
Title                                    : Simplified
Language                                 : Chinese
Default                                  : No
Forced                                   : No

Text #20
ID                                       : 22
Format                                   : UTF-8
Codec ID                                 : S_TEXT/UTF8
Codec ID/Info                            : UTF-8 Plain Text
Duration                                 : 1 h 28 min
Bit rate                                 : 37 b/s
Count of elements                        : 828
Stream size                              : 24.0 KiB (0%)
Title                                    : Traditional
Language                                 : Chinese
Default                                  : No
Forced                                   : No


悠悠MP4_MP4电影下载_警告 The.Warning.2018.SPANISH.1080p.NF.WEBRip.DDP5.1.x264-NTG 2.88GB悠悠MP4_MP4电影下载_警告 The.Warning.2018.SPANISH.1080p.NF.WEBRip.DDP5.1.x264-NTG 2.88GB悠悠MP4_MP4电影下载_警告 The.Warning.2018.SPANISH.1080p.NF.WEBRip.DDP5.1.x264-NTG 2.88GB


提示:如迅雷下载提示"任务出错"、"因版权无法下载",请尝试【迅雷5】
上传的附件:
最新回复 (0)
返回
本站所有资源均收集自互联网,没有提供影片资源存储, 也未参与录制、上传,若本站收录的资源无意侵犯了您的权益, 请联系邮箱:gogoimgs#gmail.com(#=@)