[2013] [其他] [其他] [WEB-1080P] 網路@地球村Web Web.2013.1080p.AMZN.WEBRip.DD2.0.x264-QOQ 6.07GB

uump4 1月前 176

帖子完整标题:網路@地球村Web Web.2013.1080p.AMZN.WEBRip.DD2.0.x264-QOQ 6.07GB


悠悠MP4_MP4电影下载_網路@地球村Web Web.2013.1080p.AMZN.WEBRip.DD2.0.x264-QOQ 6.07GB

◎译  名 網路@地球村Web
◎片  名 Web
◎年  代 2013
◎产  地 美国 / 秘鲁
◎类  别 纪录片
◎语  言 英语 / 西班牙语
◎上映日期 2013-11-16(美国)
◎IMDb评分 7.0/10 from 12 users
◎IMDb链接 https://www.imdb.com/title/tt3392142
◎豆瓣评分 0/10 from 0 users
◎豆瓣链接 https://movie.douban.com/subject/5152278/
◎片  长 83分钟
◎导  演 Michael Kleiman

◎标  签 秘鲁

◎简  介

  全球約有四分之一的人口在上網,但同時間有近五十億的開發中國家人口,卻因沒有網路而逐漸被全世界孤立。麻省理工學院實驗室推動了「一學童一筆電」計畫,為發展中國家的孩童提供每人一臺100美元的筆電。本片記錄下亞馬遜雨林及安地斯山脈村落中的孩童們與電腦的第一次接觸,探索網路帶來的深遠影響,並進一步展望我們腳下的這個「網路地球村」。
Video
ID : 1
Format : AVC
Format/Info : Advanced Video Codec
Format profile : [email protected]
Format settings : CABAC / 4 Ref Frames
Format settings, CABAC : Yes
Format settings, Reference frames : 4 frames
Codec ID : V_MPEG4/ISO/AVC
Duration : 1 h 22 min
Bit rate mode : Variable
Bit rate : 10.3 Mb/s
Maximum bit rate : 15.0 Mb/s
Width : 1 920 pixels
Height : 1 080 pixels
Display aspect ratio : 16:9
Frame rate mode : Constant
Frame rate : 23.976 (24000/1001) FPS
Color space : YUV
Chroma subsampling : 4:2:0
Bit depth : 8 bits
Scan type : Progressive
Bits/(Pixel*Frame) : 0.207
Stream size : 5.94 GiB (98%)
Default : Yes
Forced : No
Color range : Limited
Color primaries : BT.709
Transfer characteristics : BT.709
Matrix coefficients : BT.709

Audio
ID : 2
Format : E-AC-3
Format/Info : Enhanced AC-3
Commercial name : Dolby Digital Plus
Codec ID : A_EAC3
Duration : 1 h 22 min
Bit rate mode : Constant
Bit rate : 224 kb/s
Channel(s) : 2 channels
Channel layout : L R
Sampling rate : 48.0 kHz
Frame rate : 31.250 FPS (1536 SPF)
Compression mode : Lossy
Stream size : 132 MiB (2%)
Language : English
Service kind : Complete Main
Default : Yes
Forced : No

Text #1
ID : 3
Format : UTF-8
Codec ID : S_TEXT/UTF8
Codec ID/Info : UTF-8 Plain Text
Duration : 1 h 21 min
Bit rate : 51 b/s
Count of elements : 851
Stream size : 30.5 KiB (0%)
Language : English
Default : No
Forced : No

Text #2
ID : 4
Format : UTF-8
Codec ID : S_TEXT/UTF8
Codec ID/Info : UTF-8 Plain Text
Duration : 1 h 21 min
Bit rate : 52 b/s
Count of elements : 902
Stream size : 31.3 KiB (0%)
Title : SDH
Language : English
Default : No
Forced : No

悠悠MP4_MP4电影下载_網路@地球村Web Web.2013.1080p.AMZN.WEBRip.DD2.0.x264-QOQ 6.07GB悠悠MP4_MP4电影下载_網路@地球村Web Web.2013.1080p.AMZN.WEBRip.DD2.0.x264-QOQ 6.07GB悠悠MP4_MP4电影下载_網路@地球村Web Web.2013.1080p.AMZN.WEBRip.DD2.0.x264-QOQ 6.07GB


提示:如迅雷下载提示"任务出错"、"因版权无法下载",请尝试【迅雷5】
上传的附件:
最新回复 (0)
返回
本站所有资源均收集自互联网,没有提供影片资源存储, 也未参与录制、上传,若本站收录的资源无意侵犯了您的权益, 请联系邮箱:gogoimgs#gmail.com(#=@)