[更早] [其他] [剧情] [BD-720P] 英雄无泪 Heroes.Shed.No.Tears.1986.INTERNATIONAL.CUT.DUBBED.720p.BluRay.x264-CREEPSH

uump4 1月前 229

帖子完整标题:英雄无泪 Heroes.Shed.No.Tears.1986.INTERNATIONAL.CUT.DUBBED.720p.BluRay.x264-CREEPSHOW 5.46GB


悠悠MP4_MP4电影下载_英雄无泪 Heroes.Shed.No.Tears.1986.INTERNATIONAL.CUT.DUBBED.720p.BluRay.x264-CREEPSH

◎译  名 Heroes Shed No Tears
◎片  名 英雄无泪
◎年  代 1986
◎产  地 中国香港
◎类  别 剧情 / 动作
◎语  言 粤语
◎上映日期 1986-09-05
◎IMDb评分  6.3/10 from 935 users
◎IMDb链接  https://www.imdb.com/title/tt0092264
◎豆瓣评分 6.3/10 from 830 users
◎豆瓣链接 https://movie.douban.com/subject/1295396/
◎片  长 85分钟
◎导  演 吴宇森
◎编  剧 吴宇森
◎主  演 林正英
       高雄
       钱月笙
       马英俊
       Phillip Loffredo
       Cecile Le Bailly


◎标  签 吴宇森 | 动作 | 香港 | 林正英 | 香港电影 | 1986 | 战争 | 高雄

◎简  介  

  1986吴宇森编导的动作片,林正英、钱月笙主演。陈忠受美国秘密聘请捉拿泰籍毒枭,条件是保送儿子及小姨移民美国,陈及同行在行动中受到重创。在困境中,重遇美国爆破专家,为帮陈忠逃离,报答救命之恩,决定以死相助。

Video
ID                                       : 1
Format                                   : AVC
Format/Info                              : Advanced Video Codec
Format profile                           : [email protected]
Format settings                          : CABAC / 5 Ref Frames
Format settings, CABAC                   : Yes
Format settings, Reference frames        : 5 frames
Codec ID                                 : V_MPEG4/ISO/AVC
Duration                                 : 1 h 25 min
Bit rate                                 : 7 673 kb/s
Width                                    : 1 280 pixels
Height                                   : 688 pixels
Display aspect ratio                     : 1.85:1
Frame rate mode                          : Constant
Frame rate                               : 23.976 (24000/1001) FPS
Color space                              : YUV
Chroma subsampling                       : 4:2:0
Bit depth                                : 8 bits
Scan type                                : Progressive
Bits/(Pixel*Frame)                       : 0.363
Stream size                              : 4.56 GiB (84%)
Writing library                          : x264 core 157 r2969 d4099dd
Encoding settings                        : cabac=1 / ref=5 / deblock=1:-2:-2 / analyse=0x3:0x133 / me=umh / subme=9 / psy=1 / psy_rd=1.00:0.00 / mixed_ref=1 / me_range=16 / chroma_me=1 / trellis=2 / 8x8dct=1 / cqm=0 / deadzone=21,11 / fast_pskip=0 / chroma_qp_offset=-2 / threads=12 / lookahead_threads=1 / sliced_threads=0 / nr=0 / decimate=1 / interlaced=0 / bluray_compat=0 / constrained_intra=0 / bframes=3 / b_pyramid=2 / b_adapt=2 / b_bias=0 / direct=3 / weightb=1 / open_gop=0 / weightp=2 / keyint=240 / keyint_min=23 / scenecut=40 / intra_refresh=0 / rc_lookahead=50 / rc=2pass / mbtree=1 / bitrate=7673 / ratetol=1.0 / qcomp=0.60 / qpmin=0 / qpmax=69 / qpstep=4 / cplxblur=20.0 / qblur=0.5 / vbv_maxrate=62500 / vbv_bufsize=78125 / nal_hrd=none / filler=0 / ip_ratio=1.40 / aq=1:0.70
Default                                  : Yes
Forced                                   : No

Audio
ID                                       : 2
Format                                   : DTS
Format/Info                              : Digital Theater Systems
Codec ID                                 : A_DTS
Duration                                 : 1 h 25 min
Bit rate mode                            : Constant
Bit rate                                 : 1 509 kb/s
Channel(s)                               : 2 channels
Channel layout                           : L R
Sampling rate                            : 48.0 kHz
Frame rate                               : 93.750 FPS (512 SPF)
Bit depth                                : 24 bits
Compression mode                         : Lossy
Stream size                              : 918 MiB (16%)
Language                                 : English
Default                                  : Yes
Forced                                   : No

Menu
00:00:00.000                             : en:Chapter 01
00:04:04.536                             : en:Chapter 02
00:06:52.203                             : en:Chapter 03
00:12:59.028                             : en:Chapter 04
00:23:07.094                             : en:Chapter 05
00:33:49.486                             : en:Chapter 06
00:42:06.482                             : en:Chapter 07
00:51:08.107                             : en:Chapter 08
00:58:03.313                             : en:Chapter 09
01:04:37.582                             : en:Chapter 10
01:12:56.205                             : en:Chapter 11
01:22:08.340                             : en:Chapter 12


悠悠MP4_MP4电影下载_英雄无泪 Heroes.Shed.No.Tears.1986.INTERNATIONAL.CUT.DUBBED.720p.BluRay.x264-CREEPSH


提示:如迅雷下载提示"任务出错"、"因版权无法下载",请尝试【迅雷5】
上传的附件:
最新回复 (0)
返回
本站所有资源均收集自互联网,没有提供影片资源存储, 也未参与录制、上传,若本站收录的资源无意侵犯了您的权益, 请联系邮箱:gogoimgs#gmail.com(#=@)