[2019] [其他] [剧情] [BD-720P] 攀登者 The.Climbers.2019.LIMITED.720p.BluRay.x264-ROVERS 6.56GB

uump4 1月前 204

帖子完整标题:攀登者 The.Climbers.2019.LIMITED.720p.BluRay.x264-ROVERS 6.56GB


悠悠MP4_MP4电影下载_攀登者 The.Climbers.2019.LIMITED.720p.BluRay.x264-ROVERS 6.56GB

◎译  名 The Climbers
◎片  名 攀登者
◎年  代 2019
◎产  地 中国大陆
◎类  别 剧情 / 爱情 / 冒险
◎语  言 汉语普通话 / 藏语
◎上映日期 2019-09-30(中国大陆)
◎IMDb评分  5.3/10 from 458 users
◎IMDb链接  https://www.imdb.com/title/tt9635616
◎豆瓣评分 6.1/10 from 235712 users
◎豆瓣链接 https://movie.douban.com/subject/30413052/
◎片  长 125分钟
◎导  演 李仁港 Daniel Lee
◎编  剧 阿来 A Lai / 尚英 Ying Shang / 李仁港 Daniel Lee
◎主  演 吴京 Jing Wu
       章子怡 Ziyi Zhang
       井柏然 Boran Jing
       张译 Yi Zhang
       胡歌 Ge Hu
       成龙 Jackie Chan
       陈龙 Long Chen
       多布杰 Duobujie
       何琳 Lin He
       刘小锋 Xiaofeng Liu
       拉旺罗布 Lawang  Lop
       曲尼次仁 Choenyi Tsering
       王景春 Jingchun Wang


◎标  签 珠峰 | 正能量 | 登山 | 爱国 | 真实事件改编 | 中国大陆 | 冒险 | 2019

◎简  介  

  1960年,中国登山队向珠峰发起冲刺,完成了世界首次北坡登顶这一不可能的任务。15 年后,方五洲和曲松林在气象学家徐缨的帮助下,带领李国梁、杨光等年轻队员再次挑战世界之巅。迎接他们的将是更加 严酷的现实,也是生与死的挑战......

Video
ID                                       : 1
Format                                   : AVC
Format/Info                              : Advanced Video Codec
Format profile                           : [email protected]
Format settings                          : CABAC / 5 Ref Frames
Format settings, CABAC                   : Yes
Format settings, Reference frames        : 5 frames
Codec ID                                 : V_MPEG4/ISO/AVC
Duration                                 : 2 h 2 min
Bit rate                                 : 6 123 kb/s
Width                                    : 1 280 pixels
Height                                   : 536 pixels
Display aspect ratio                     : 2.40:1
Frame rate mode                          : Constant
Frame rate                               : 24.000 FPS
Color space                              : YUV
Chroma subsampling                       : 4:2:0
Bit depth                                : 8 bits
Scan type                                : Progressive
Bits/(Pixel*Frame)                       : 0.372
Stream size                              : 5.26 GiB (80%)
Writing library                          : x264 core 159 r2991 1771b55
Encoding settings                        : cabac=1 / ref=5 / deblock=1:-3:-3 / analyse=0x3:0x113 / me=umh / subme=8 / psy=1 / psy_rd=1.00:0.00 / mixed_ref=1 / me_range=16 / chroma_me=1 / trellis=1 / 8x8dct=1 / cqm=0 / deadzone=21,11 / fast_pskip=1 / chroma_qp_offset=-2 / threads=17 / lookahead_threads=2 / sliced_threads=0 / nr=0 / decimate=1 / interlaced=0 / bluray_compat=0 / constrained_intra=0 / bframes=3 / b_pyramid=2 / b_adapt=1 / b_bias=0 / direct=3 / weightb=1 / open_gop=0 / weightp=2 / keyint=250 / keyint_min=24 / scenecut=40 / intra_refresh=0 / rc_lookahead=50 / rc=2pass / mbtree=1 / bitrate=6123 / ratetol=1.0 / qcomp=0.60 / qpmin=0 / qpmax=69 / qpstep=4 / cplxblur=20.0 / qblur=0.5 / ip_ratio=1.40 / aq=1:1.00
Default                                  : Yes
Forced                                   : No

Audio
ID                                       : 2
Format                                   : DTS
Format/Info                              : Digital Theater Systems
Codec ID                                 : A_DTS
Duration                                 : 2 h 2 min
Bit rate mode                            : Constant
Bit rate                                 : 1 509 kb/s
Channel(s)                               : 6 channels
Channel layout                           : C L R Ls Rs LFE
Sampling rate                            : 48.0 kHz
Frame rate                               : 93.750 FPS (512 SPF)
Bit depth                                : 24 bits
Compression mode                         : Lossy
Stream size                              : 1.30 GiB (20%)
Language                                 : Chinese
Default                                  : Yes
Forced                                   : No

Text
ID                                       : 3
Format                                   : UTF-8
Codec ID                                 : S_TEXT/UTF8
Codec ID/Info                            : UTF-8 Plain Text
Duration                                 : 1 h 59 min
Bit rate                                 : 42 b/s
Count of elements                        : 1307
Stream size                              : 37.5 KiB (0%)
Title                                    : English Forced
Language                                 : English
Default                                  : No
Forced                                   : Yes


悠悠MP4_MP4电影下载_攀登者 The.Climbers.2019.LIMITED.720p.BluRay.x264-ROVERS 6.56GB


提示:如迅雷下载提示"任务出错"、"因版权无法下载",请尝试【迅雷5】
上传的附件:
最新回复 (0)
返回
本站所有资源均收集自互联网,没有提供影片资源存储, 也未参与录制、上传,若本站收录的资源无意侵犯了您的权益, 请联系邮箱:gogoimgs#gmail.com(#=@)