[2018] [欧美] [WEB-720P] 美国达摩/美国政道 American.Dharma.2018.720p.AMZN.WEBRip.DDP5.1.x264-DBS 1.94GB

uump4 1月前 144

帖子完整标题:美国达摩/美国政道 American.Dharma.2018.720p.AMZN.WEBRip.DDP5.1.x264-DBS 1.94GB


悠悠MP4_MP4电影下载_美国达摩/美国政道 American.Dharma.2018.720p.AMZN.WEBRip.DDP5.1.x264-DBS 1.94GB

◎译  名 美国达摩 / 美国政道
◎片  名 American Dharma
◎年  代 2018
◎产  地 美国
◎语  言 英语
◎上映日期 2018-09-05(威尼斯电影节)
◎IMDb评分  6.9/10 from 242 users
◎IMDb链接  https://www.imdb.com/title/tt8804284
◎豆瓣评分 0/10 from 0 users
◎豆瓣链接 https://movie.douban.com/subject/30283629/
◎片  长 95分钟
◎导  演 埃罗尔·莫里斯 Errol Morris
◎主  演 斯蒂芬·班农 Stephen K. Bannon


◎标  签 纪录片 | 美国 | 政治 | 2018 | 地区_美国 | Venezia75 | NYFF56 | Documentary

◎简  介  

  A portrait of controversial Breitbart honcho and Donald J. Trump advisor, Stephen K. Bannon.

Video
ID                                       : 1
Format                                   : AVC
Format/Info                              : Advanced Video Codec
Format profile                           : [email protected]
Format settings                          : CABAC / 4 Ref Frames
Format settings, CABAC                   : Yes
Format settings, Reference frames        : 4 frames
Codec ID                                 : V_MPEG4/ISO/AVC
Duration                                 : 1 h 36 min
Bit rate mode                            : Constant
Bit rate                                 : 2 231 kb/s
Nominal bit rate                         : 6 000 kb/s
Width                                    : 1 280 pixels
Height                                   : 544 pixels
Display aspect ratio                     : 2.35:1
Original display aspect ratio            : 2.35:1
Frame rate mode                          : Constant
Frame rate                               : 23.976 (24000/1001) FPS
Color space                              : YUV
Chroma subsampling                       : 4:2:0
Bit depth                                : 8 bits
Scan type                                : Progressive
Bits/(Pixel*Frame)                       : 0.134
Stream size                              : 1.51 GiB (78%)
Default                                  : Yes
Forced                                   : No
Color range                              : Limited
Color primaries                          : BT.709
Transfer characteristics                 : BT.709
Matrix coefficients                      : BT.709

Audio
ID                                       : 2
Format                                   : E-AC-3
Format/Info                              : Enhanced AC-3
Commercial name                          : Dolby Digital Plus
Codec ID                                 : A_EAC3
Duration                                 : 1 h 36 min
Bit rate mode                            : Constant
Bit rate                                 : 640 kb/s
Channel(s)                               : 6 channels
Channel layout                           : L R C LFE Ls Rs
Sampling rate                            : 48.0 kHz
Frame rate                               : 31.250 FPS (1536 SPF)
Compression mode                         : Lossy
Stream size                              : 443 MiB (22%)
Language                                 : English
Service kind                             : Complete Main
Default                                  : Yes
Forced                                   : No

Text #1
ID                                       : 3
Format                                   : UTF-8
Codec ID                                 : S_TEXT/UTF8
Codec ID/Info                            : UTF-8 Plain Text
Duration                                 : 1 h 28 min
Bit rate                                 : 90 b/s
Count of elements                        : 1564
Stream size                              : 58.9 KiB (0%)
Language                                 : English
Default                                  : No
Forced                                   : No

Text #2
ID                                       : 4
Format                                   : UTF-8
Codec ID                                 : S_TEXT/UTF8
Codec ID/Info                            : UTF-8 Plain Text
Duration                                 : 1 h 29 min
Bit rate                                 : 91 b/s
Count of elements                        : 1591
Stream size                              : 60.1 KiB (0%)
Title                                    : SDH
Language                                 : English
Default                                  : No
Forced                                   : No


悠悠MP4_MP4电影下载_美国达摩/美国政道 American.Dharma.2018.720p.AMZN.WEBRip.DDP5.1.x264-DBS 1.94GB悠悠MP4_MP4电影下载_美国达摩/美国政道 American.Dharma.2018.720p.AMZN.WEBRip.DDP5.1.x264-DBS 1.94GB悠悠MP4_MP4电影下载_美国达摩/美国政道 American.Dharma.2018.720p.AMZN.WEBRip.DDP5.1.x264-DBS 1.94GB


提示:如迅雷下载提示"任务出错"、"因版权无法下载",请尝试【迅雷5】
上传的附件:
最新回复 (0)
返回
本站所有资源均收集自互联网,没有提供影片资源存储, 也未参与录制、上传,若本站收录的资源无意侵犯了您的权益, 请联系邮箱:gogoimgs#gmail.com(#=@)