[2015] [欧美] [剧情] [BD-720P] 克利夏 Krisha.2015.720p.BluRay.x264-REGRET 4.38GB

uump4 1月前 55

帖子完整标题:克利夏 Krisha.2015.720p.BluRay.x264-REGRET 4.38GB


悠悠MP4_MP4电影下载_克利夏 Krisha.2015.720p.BluRay.x264-REGRET 4.38GB

◎译  名 克利夏
◎片  名 Krisha
◎年  代 2015
◎产  地 美国
◎类  别 剧情 / 喜剧
◎语  言 英语
◎上映日期 2015-03-16(西南偏南电影节) / 2016-03-18(美国)
◎IMDb评分  7.2/10 from 6583 users
◎IMDb链接  https://www.imdb.com/title/tt4266638
◎豆瓣评分 6.7/10 from 914 users
◎豆瓣链接 https://movie.douban.com/subject/26340103/
◎片  长 83分钟
◎导  演 特里·爱德华·沙尔茨 Trey Edward Shults
◎编  剧 特里·爱德华·沙尔茨 Trey Edward Shults
◎主  演 克利夏·费尔柴尔德 Krisha Fairchild
       艾利克斯·多布兰口 Alex Dobrenko
       克里斯·杜贝克 Chris Doubek
       布莱恩·卡瑟利 Bryan Casserly
       蔡斯·乔利埃特 Chase Joliet
       奥古斯汀·弗里泽尔 Augustine Frizzell
       奥利维亚·格雷斯·阿普尔盖特 Olivia Grace Applegate
       比尔·怀斯 Bill Wise
       特里·爱德华·沙尔茨 Trey Edward Shults


◎标  签 美国 | 家庭 | 剧情 | 2015 | 独立电影 | 文艺 | 喜剧 | 生活

◎简  介  

  讲述了一个久未归家的老妇在感恩节突然回归家庭,本想改过自新做一个善良长辈的她在内心恶魔的驱使下,再次就犯,为本来和谐的家庭聚会带来震荡。

◎获奖情况  

  第68届戛纳电影节(2015)
  金摄影机奖(导演处女作奖)(提名) 特里·爱德华·沙尔茨
  影评人周单元  影评人周单元大奖 (提名) 特里·爱德华·沙尔茨

  第20届釜山国际电影节(2015)
  未来景象奖(提名)

  第82届纽约影评人协会奖(2016)
  最佳处女作

  第88届美国国家评论协会奖(2016)
  最佳导演处女作 特里·爱德华·沙尔茨
  十佳独立电影(提名)

  第31届美国独立精神奖(2016)
  约翰·卡萨维茨奖 特里·爱德华·沙尔茨

  第26届哥谭独立电影奖(2016)
  最佳突破导演奖 特里·爱德华·沙尔茨

  第29届芝加哥影评人协会奖(2016)
  最具潜力导演(提名) 特里·爱德华·沙尔茨

Video
ID                                       : 1
Format                                   : AVC
Format/Info                              : Advanced Video Codec
Format profile                           : [email protected]
Format settings                          : CABAC / 5 Ref Frames
Format settings, CABAC                   : Yes
Format settings, Reference frames        : 5 frames
Codec ID                                 : V_MPEG4/ISO/AVC
Duration                                 : 1 h 21 min
Bit rate                                 : 6 160 kb/s
Width                                    : 1 280 pixels
Height                                   : 688 pixels
Display aspect ratio                     : 1.85:1
Frame rate mode                          : Constant
Frame rate                               : 23.976 (24000/1001) FPS
Color space                              : YUV
Chroma subsampling                       : 4:2:0
Bit depth                                : 8 bits
Scan type                                : Progressive
Bits/(Pixel*Frame)                       : 0.292
Stream size                              : 3.51 GiB (80%)
Writing library                          : x264 core 159 r2991 1771b55
Encoding settings                        : cabac=1 / ref=5 / deblock=1:-3:-3 / analyse=0x3:0x133 / me=umh / subme=9 / psy=1 / psy_rd=1.00:0.00 / mixed_ref=1 / me_range=16 / chroma_me=1 / trellis=2 / 8x8dct=1 / cqm=0 / deadzone=21,11 / fast_pskip=0 / chroma_qp_offset=-2 / threads=21 / lookahead_threads=1 / sliced_threads=0 / nr=0 / decimate=1 / interlaced=0 / bluray_compat=0 / constrained_intra=0 / bframes=3 / b_pyramid=2 / b_adapt=1 / b_bias=0 / direct=3 / weightb=1 / open_gop=0 / weightp=2 / keyint=240 / keyint_min=24 / scenecut=40 / intra_refresh=0 / rc_lookahead=50 / rc=2pass / mbtree=1 / bitrate=6160 / ratetol=1.0 / qcomp=0.60 / qpmin=0 / qpmax=69 / qpstep=4 / cplxblur=20.0 / qblur=0.5 / ip_ratio=1.40 / aq=1:1.00
Language                                 : English
Default                                  : Yes
Forced                                   : No

Audio
ID                                       : 2
Format                                   : DTS
Format/Info                              : Digital Theater Systems
Codec ID                                 : A_DTS
Duration                                 : 1 h 21 min
Bit rate mode                            : Constant
Bit rate                                 : 1 509 kb/s
Channel(s)                               : 6 channels
Channel layout                           : C L R Ls Rs LFE
Sampling rate                            : 48.0 kHz
Frame rate                               : 93.750 FPS (512 SPF)
Bit depth                                : 24 bits
Compression mode                         : Lossy
Stream size                              : 881 MiB (20%)
Language                                 : English
Default                                  : Yes
Forced                                   : No

Text #1
ID                                       : 3
Format                                   : UTF-8
Codec ID                                 : S_TEXT/UTF8
Codec ID/Info                            : UTF-8 Plain Text
Duration                                 : 1 h 17 min
Bit rate                                 : 57 b/s
Count of elements                        : 893
Stream size                              : 32.5 KiB (0%)
Title                                    : English
Language                                 : English
Default                                  : No
Forced                                   : No

Text #2
ID                                       : 4
Format                                   : UTF-8
Codec ID                                 : S_TEXT/UTF8
Codec ID/Info                            : UTF-8 Plain Text
Duration                                 : 1 h 17 min
Bit rate                                 : 62 b/s
Count of elements                        : 987
Stream size                              : 35.7 KiB (0%)
Title                                    : English SDH
Language                                 : English
Default                                  : No
Forced                                   : No

Menu
00:00:00.000                             : en:Chapter 01
00:07:53.932                             : en:Chapter 02
00:14:41.005                             : en:Chapter 03
00:21:56.148                             : en:Chapter 04
00:29:33.021                             : en:Chapter 05
00:34:49.337                             : en:Chapter 06
00:46:37.211                             : en:Chapter 07
00:51:35.676                             : en:Chapter 08
00:59:55.884                             : en:Chapter 09
01:05:50.321                             : en:Chapter 10
01:13:42.251                             : en:Chapter 11
01:19:27.012                             : en:Chapter 12


悠悠MP4_MP4电影下载_克利夏 Krisha.2015.720p.BluRay.x264-REGRET 4.38GB


提示:如迅雷下载提示"任务出错"、"因版权无法下载",请尝试【迅雷5】
上传的附件:
最新回复 (0)
返回
本站所有资源均收集自互联网,没有提供影片资源存储, 也未参与录制、上传,若本站收录的资源无意侵犯了您的权益, 请联系邮箱:gogoimgs#gmail.com(#=@)