[2018] [其他] [其他] [WEB-1080P] 瓦尔德海姆的华尔兹 The.Waldheim.Waltz.2018.GERMAN.1080p.AMZN.WEBRip.DDP5.1.x264-KamiKaze

uump4 7月前 250

帖子完整标题:瓦尔德海姆的华尔兹 The.Waldheim.Waltz.2018.GERMAN.1080p.AMZN.WEBRip.DDP5.1.x264-KamiKaze 6.44GB


悠悠MP4_MP4电影下载_瓦尔德海姆的华尔兹 The.Waldheim.Waltz.2018.GERMAN.1080p.AMZN.WEBRip.DDP5.1.x264-KamiKaze

◎译  名 瓦尔德海姆的华尔兹 / The Waldheim Waltz / Waldheim oder The Art of Forgetting
◎片  名 Waldheims Walzer
◎年  代 2018
◎产  地 奥地利
◎类  别 纪录片
◎语  言 德语 / 英语 / 法语
◎上映日期 2018-02-17(柏林影展)
◎IMDb评分  7.5/10 from 350 users
◎IMDb链接  https://www.imdb.com/title/tt8055880
◎豆瓣评分 7.9/10 from 97 users
◎豆瓣链接 https://movie.douban.com/subject/26887043/
◎片  长 93分钟
◎导  演 Ruth Beckermann

◎标  签 纪录片 | 奥地利 | 2018 | 柏林电影节 | 政治 | 反纳粹 | 二战 | 战争

◎简  介  

  记录了联合国第四任秘书长同时也是奥地利总统库尔特·瓦尔德海姆的生平。他曾因为与纳粹交好而在世界范围内饱受争议。

◎获奖情况  

  第68届柏林国际电影节(2018)
  金熊奖 最佳纪录片

Video
ID                                       : 1
Format                                   : AVC
Format/Info                              : Advanced Video Codec
Format profile                           : [email protected]
Format settings                          : CABAC / 4 Ref Frames
Format settings, CABAC                   : Yes
Format settings, Reference frames        : 4 frames
Codec ID                                 : V_MPEG4/ISO/AVC
Duration                                 : 1 h 33 min
Bit rate mode                            : Constant
Bit rate                                 : 9 189 kb/s
Nominal bit rate                         : 10 000 kb/s
Width                                    : 1 440 pixels
Height                                   : 1 080 pixels
Display aspect ratio                     : 4:3
Frame rate mode                          : Constant
Frame rate                               : 25.000 FPS
Color space                              : YUV
Chroma subsampling                       : 4:2:0
Bit depth                                : 8 bits
Scan type                                : Progressive
Bits/(Pixel*Frame)                       : 0.236
Stream size                              : 6.02 GiB (93%)
Default                                  : Yes
Forced                                   : No
Color range                              : Limited
Color primaries                          : BT.709
Transfer characteristics                 : BT.709
Matrix coefficients                      : BT.709

Audio
ID                                       : 2
Format                                   : E-AC-3
Format/Info                              : Enhanced AC-3
Commercial name                          : Dolby Digital Plus
Codec ID                                 : A_EAC3
Duration                                 : 1 h 33 min
Bit rate mode                            : Constant
Bit rate                                 : 640 kb/s
Channel(s)                               : 6 channels
Channel layout                           : L R C LFE Ls Rs
Sampling rate                            : 48.0 kHz
Frame rate                               : 31.250 FPS (1536 SPF)
Compression mode                         : Lossy
Stream size                              : 430 MiB (7%)
Language                                 : German
Service kind                             : Complete Main
Default                                  : Yes
Forced                                   : No

Text
ID                                       : 3
Format                                   : UTF-8
Codec ID                                 : S_TEXT/UTF8
Codec ID/Info                            : UTF-8 Plain Text
Duration                                 : 1 h 13 min
Bit rate                                 : 41 b/s
Count of elements                        : 436
Stream size                              : 22.2 KiB (0%)
Title                                    : English [CC](SDH)
Language                                 : English
Default                                  : Yes
Forced                                   : No


悠悠MP4_MP4电影下载_瓦尔德海姆的华尔兹 The.Waldheim.Waltz.2018.GERMAN.1080p.AMZN.WEBRip.DDP5.1.x264-KamiKaze悠悠MP4_MP4电影下载_瓦尔德海姆的华尔兹 The.Waldheim.Waltz.2018.GERMAN.1080p.AMZN.WEBRip.DDP5.1.x264-KamiKaze悠悠MP4_MP4电影下载_瓦尔德海姆的华尔兹 The.Waldheim.Waltz.2018.GERMAN.1080p.AMZN.WEBRip.DDP5.1.x264-KamiKaze


提示:如迅雷下载提示"任务出错"、"因版权无法下载",请尝试【迅雷5】
上传的附件:
最新回复 (0)
返回
本站所有资源均收集自互联网,没有提供影片资源存储, 也未参与录制、上传,若本站收录的资源无意侵犯了您的权益, 请联系邮箱:gogoimgs#gmail.com(#=@)