[更早] [欧美] [剧情] [WEB-1080P] 乘风旅行 Joyride.1997.1080p.AMZN.WEBRip.DDP2.0.x264-SiGMA 7.28GB

uump4 2天前 102

帖子完整标题:乘风旅行 Joyride.1997.1080p.AMZN.WEBRip.DDP2.0.x264-SiGMA 7.28GB


悠悠MP4_MP4电影下载_乘风旅行 Joyride.1997.1080p.AMZN.WEBRip.DDP2.0.x264-SiGMA 7.28GB

◎译  名 乘风旅行
◎片  名 joyride
◎年  代 1997
◎产  地 美国
◎类  别 剧情
◎语  言 英语
◎IMDb评分  5.0/10 from 1464 users
◎IMDb链接  https://www.imdb.com/title/tt0119426
◎豆瓣评分 0/10 from 0 users
◎豆瓣链接 https://movie.douban.com/subject/1474425/
◎片  长 93 分钟
◎导  演 Quinton Peeples
◎主  演 Tobey Maguire
       Wilson Cruz
       Benicio Del Toro


◎标  签 独立电影 | TobeyMaguire | 公路电影 | 4AD | 美国 | 90年代 | 1997 | 复古青春

◎简  介  

  1997年Tobey Maguire主演的公路电影:小镇的3个孩子偷了一辆车去寻找另一个死去的孩子,神奇的是,4AD音乐人大牌扎堆为这部电影配乐,堪称一张4AD的完美合辑。如果你没看过这部电影,光听原声都够给力的了!
  OST页面:http://music.douban.com/subject/1827168/
  部分试听:http://www.xiami.com/song/showcollect/id/5077233

Video
ID                                       : 1
Format                                   : AVC
Format/Info                              : Advanced Video Codec
Format profile                           : [email protected]
Format settings                          : CABAC / 4 Ref Frames
Format settings, CABAC                   : Yes
Format settings, Reference frames        : 4 frames
Codec ID                                 : V_MPEG4/ISO/AVC
Duration                                 : 1 h 31 min
Bit rate                                 : 11.1 Mb/s
Width                                    : 1 920 pixels
Height                                   : 1 040 pixels
Display aspect ratio                     : 1.85:1
Frame rate mode                          : Constant
Frame rate                               : 23.976 (24000/1001) FPS
Color space                              : YUV
Chroma subsampling                       : 4:2:0
Bit depth                                : 8 bits
Scan type                                : Progressive
Bits/(Pixel*Frame)                       : 0.233
Stream size                              : 7.14 GiB (98%)
Default                                  : Yes
Forced                                   : No
Color range                              : Limited
Color primaries                          : BT.709
Transfer characteristics                 : BT.709
Matrix coefficients                      : BT.709

Audio
ID                                       : 2
Format                                   : E-AC-3
Format/Info                              : Enhanced AC-3
Commercial name                          : Dolby Digital Plus
Codec ID                                 : A_EAC3
Duration                                 : 1 h 31 min
Bit rate mode                            : Constant
Bit rate                                 : 224 kb/s
Channel(s)                               : 2 channels
Channel layout                           : L R
Sampling rate                            : 48.0 kHz
Frame rate                               : 31.250 FPS (1536 SPF)
Compression mode                         : Lossy
Stream size                              : 147 MiB (2%)
Language                                 : English
Service kind                             : Complete Main
Default                                  : Yes
Forced                                   : No

Text
ID                                       : 3
Format                                   : UTF-8
Codec ID                                 : S_TEXT/UTF8
Codec ID/Info                            : UTF-8 Plain Text
Duration                                 : 1 h 31 min
Bit rate                                 : 57 b/s
Count of elements                        : 1573
Stream size                              : 38.8 KiB (0%)
Title                                    : English (SDH)
Language                                 : English
Default                                  : No
Forced                                   : No


悠悠MP4_MP4电影下载_乘风旅行 Joyride.1997.1080p.AMZN.WEBRip.DDP2.0.x264-SiGMA 7.28GB悠悠MP4_MP4电影下载_乘风旅行 Joyride.1997.1080p.AMZN.WEBRip.DDP2.0.x264-SiGMA 7.28GB悠悠MP4_MP4电影下载_乘风旅行 Joyride.1997.1080p.AMZN.WEBRip.DDP2.0.x264-SiGMA 7.28GB


提示:如迅雷下载提示"任务出错"、"因版权无法下载",请尝试【迅雷5】
上传的附件:
最新回复 (0)
返回
本站所有资源均收集自互联网,没有提供影片资源存储, 也未参与录制、上传,若本站收录的资源无意侵犯了您的权益, 请联系邮箱:gogoimgs#gmail.com(#=@)